Ссылка на приватное зеркало нашего сайта всего за 1$. Внимание количество ограничено!!!

2 сезон

iTunes

1 сезон

1

iTunes

iTunes

iTunes

1 сезон

RePack

30

ИГРА 18+

pack

ВАЖНО

!!Акция!!

Alien_RageХит недели

RePack

MK11
pack

Забери бонус

RePack

jed

!!Акция!!

Alien_Rage

RePack

fifa19

RePack

Assassins Creed: Odyssey

RePack

NEED FOR SPEED™ PAYBACK

4 сезон

9 сезон

Бесстыжие 9 сезон

Все сериалы

все сериалы на PB.wtf

RePack

FAR CRY 5
  

Осколки / Серия 1-16 из 16 (Владимир Нахабцев (младший)) [2018 г., Мелодрама, SATRip] pb.wtf

Осколки через торрент pb.wtf

Размер: 10.86 GB | Добавлен: 2 года 7 мес. назад | Торрент скачан:100 раз
Скачать  

12-03-2018 11:38 Осколки Скачать торрент  

Осколки / Серия 1-16 из 16
Год выпуска: 2018
Страна: Россия
Жанр: Мелодрама
Продолжительность: 16 х 00:50:00
Субтитры: нет

Режиссер: Владимир Нахабцев (младший)

В ролях: : Наталия Антонова, Александр Дьяченко, Татьяна Черкасова, Валерия Бурдужа, Аглая Тарасова, Анна Дулова, Кира Кауфман, Дмитрий Пчела, Ольга Кирсанова-Миропольская, Алексей Одинг, Валерий Кухарешин, Борис Хвошнянский, Юлия Куварзина, Евгения Глотова, Тина Тарусина

Описание: В основу сюжета легли реальные истории перепутанных в роддоме детей.
Она – обыкновенная женщина с маленькой зарплатой и любящая мать. Он – богатый бизнесмен и любящий отец. Они встретились, когда узнали, что много лет растили детей друг друга. И теперь, когда правда открылась, им придется по осколкам собирать свои разбитые сердца…
По стечению обстоятельств в дорогой частной клинике одновременно рожают две женщины. Одна – Анна Прокопьева (Наталия Антонова), жена бизнесмена Олега (Александр Дьяченко), вторая – Мария Прокофьева (Татьяна Черкасова), бедная девушка, которая попала в клинику случайно. Фамилии новорожденных девочек отличались всего на одну букву…
Прошло 15 лет. Девочки стали старшеклассницами. Дочь Анны и Олега – Варя (Анна Дулова), выросла в роскоши. Она ходит в элитную школу и занимается конным спортом. Олег обожает дочь и всячески ее балует, а Анна, наоборот, слишком к ней строга.

Качество: SATRip
Формат: AVI
Видео кодек: XviD
Аудио кодек: MP3
Видео: XviD, 1800 Кбит/с, 720x40
Аудио#1: МР3, 2 ch, 128 Кбит/с
скриншот   скриншот   скриншот   скриншот  

General
Complete name : H:\релизы.торрентфайл\Осколки(2018)\Oskolki.01.SATRip.[www.riperam.org].avi
Format : AVI
Format/Info : Audio Video Interleave
File size : 712 MiB
Duration : 51mn 23s
Overall bit rate : 1 938 Kbps
Writing application : VirtualDubMod 1.5.10.3 (build 2550/release)
Writing library : VirtualDubMod build 2550/release

Video
ID : 0
Format : MPEG-4 Visual
Format profile : Advanced Simple@L5
Format settings, BVOP : 2
Format settings, QPel : No
Format settings, GMC : No warppoints
Format settings, Matrix : Default (H.263)
Codec ID : XVID
Codec ID/Hint : XviD
Duration : 51mn 23s
Bit rate : 1 800 Kbps
Width : 720 pixels
Height : 400 pixels
Display aspect ratio : 16:9
Frame rate : 25.000 fps
Color space : YUV
Chroma subsampling : 4:2:0
Bit depth : 8 bits
Scan type : Progressive
Compression mode : Lossy
Bits/(Pixel*Frame) : 0.250
Stream size : 662 MiB (93%)
Writing library : XviD 1.2.1 (UTC 2008-12-04)

Audio
ID : 1
Format : MPEG Audio
Format version : Version 1
Format profile : Layer 3
Codec ID : 55
Codec ID/Hint : MP3
Duration : 51mn 23s
Bit rate mode : Constant
Bit rate : 128 Kbps
Channel(s) : 2 channels
Sampling rate : 48.0 KHz
Compression mode : Lossy
Stream size : 47.1 MiB (7%)
Alignment : Aligned on interleaves
Interleave, duration : 40 ms (1.00 video frame)
Interleave, preload duration : 504 ms
Writing library : LAME3.99r
Encoding settings : -m s -V 4 -q 2 -lowpass 17 -b 128

Внимание! Раздача ведётся путём добавления новых серий; при каждом добавлении создётся новый торрент. Чтобы начать докачку новой серии, пользователям необходимо сделать следующее:
  • Остановить скачивание,
  • Удалить старый торрент у себя из клиента (старые серии удалять не надо),
  • Скачать новый торрент и запустить его у себя в клиенте вместо старого, при этом указать клиенту путь в старую папку куда и должно происходить скачивание новых серий.
Ваш клиент при этом должен произвести хеширование (проверку) старой папки (если не производит сам - помогите ему сделать это), и будет докачивать только те серии которых у вас ещё нет. Старые серии при этом не удаляются, а продолжают раздаваться!

Eсли вы уже удалили старые серии, то предотвратить повторную закачку старых серий можно, отжав галочку в соответсвующих местах при запуске нового торрента. По возможности, желательно не удалять старые серии как можно дольше чтобы релизёр не столько продолжал раздавать старые серии, а смог сконцентрироваться на новых.
pb.wtf



Скачать Осколки через торрент http://i101.fastpic.ru/big/2018/0312/4c/a6c99d71819487b5fa52b22741bcbf4c.jpg Скачать фильм Осколки через торрент бесплантно в хорошем качестве Описание: В основу сюжета легли реальные истории перепутанных в роддоме детей.Она – обыкновенная женщина с маленькой зарплатой и любящая ... 8.7 10 15
Торрент: Зарегистрирован [2018-03-20 14:54] · скачан: 100 раз
Статус: √ проверено
Размер: 10.86 GB
Как cкачать? Как скачать Осколки через торрент | qTorrent



Последний раз редактировалось: oleg8 (2018-03-20 14:54), всего редактировалось 6 раз(а)

28-11-2019 20:33  

Отключить всю рекламу на сайте

    Дорогой пользователь! Огромная просьба, поблагодарите релизера, оцените раздачу и оставьте свои комментарий, если Вы скачали Осколки через торрент бесплатно! Внесите свою лепту в развитие PiratBit!
    Комментировать посты могут только пользователи прошедшие не сложную регистрацию
    Показать сообщения:    

    Осколки через торрент
    Скачать бесплатно Осколки
    Осколки скачать торрент
    Осколки смотреть онлайн
    Cкачать фильм Осколки бесплатно
    Осколки скачать торрент в хорошем качестве
    Осколки смотреть онлайн бесплатно в хорошем качестве


    Вы не можете начинать темы
    Вы не можете отвечать на сообщения
    Вы не можете редактировать свои сообщения
    Вы не можете удалять свои сообщения
    Вы не можете голосовать в опросах
    Вы не можете прикреплять файлы к сообщениям
    Вы можете скачивать файлы