Ссылка на приватное зеркало нашего сайта всего за 1$. Внимание количество ограничено!!!

2 сезон

iTunes

1 сезон

1

2 сезон

2 сезон

iTunes

1 сезон

RePack

30

Ultimate

ВАЖНО

ИГРА 18+

pack

RePack

MK11
pack

Забери бонус

RePack

jed

!!Акция!!

Alien_Rage

RePack

fifa19

RePack

Assassins Creed: Odyssey

RePack

NEED FOR SPEED™ PAYBACK

4 сезон

9 сезон

Бесстыжие 9 сезон

Все сериалы

все сериалы на PB.wtf

RePack

FAR CRY 5
  

Богомол / La Mante / Сезон: 1 / Серии: 1-6 из 6 (Александр Лорен) [2017, Триллер, драма, криминал, WEBRip] MVO [ColdFilm] pb.wtf

Богомол через торрент pb.wtf

Раздают: 1 [ 0 KB/s ]
Размер: 3.18 GB | Добавлен: 2 года 8 мес. назад | Торрент скачан:128 раз
Скачать  

12-03-2018 12:40 Богомол Скачать торрент  

Богомол / La ManteГод выпуска: 2017
Страна: Франция
Жанр: Триллер, драма, криминал
Продолжительность: 6x ~ 00:55:00
Перевод: Любительский (многоголосый) - скриншот  
Субтитры: отсутствуют

Режиссер: Александр Лорен

rating

В ролях:

Кароль Буке, Фред Тесто, Мэнон Азем, Паскаль Демолон, Фредерик Бель, Жак Вебер, Робинсон Стевенен, Элоди Наварр, Серж Рябукин, Жюльен Тортора

Описание:

Действие сериала разворачивается в Париже в наше время. Центральным персонажем триллера выступает Жанна Дебер (Кароль Буке) по прозвищу Богомол. Она печально известная женщина-серийный убийца, которая держала в страхе Францию больше 25 лет назад. По соглашению с полицией Жанна покидает свою камеру-одиночку, чтобы помогать в охоте на ее подражателя, при одном условии: если ее сын, ставший теперь полицейским, будет работать с ней. У Дамьена не остается выбора, серийный убийца гуляет на свободе и может нанести удар в любой момент.

Качество: WEBRip
Формат: AVI

Видео: 1194 Кбит/с, 720x356, 29.970 fps
Аудио#1: Русский (MP3, 2 ch, 128 Кбит/с
скриншот   скриншот   скриншот   скриншот  

Общее
Полное имя : D:\La.Mante.S01.400p.ColdFilm\La.Mante.S01E01.400p.ColdFilm.avi
Формат : AVI
Формат/Информация : Audio Video Interleave
Размер файла : 542 Мбайт
Продолжительность : 55 м. 56 с.
Общий поток : 1353 Кбит/сек
Программа кодирования : Lavf57.40.101

Видео
Идентификатор : 1
Формат : MPEG-4 Visual
Профиль формата : Advanced Simple@L1
Параметр BVOP формата : Нет
Параметр QPel формата : Нет
Параметр GMC формата : Без точки перехода
Параметр матрицы формата : Default (H.263)
Идентификатор кодека : FMP4
Продолжительность : 55 м. 56 с.
Битрейт : 1194 Кбит/сек
Ширина : 720 пикселей
Высота : 356 пикселей
Соотношение сторон : 2,022
Режим частоты кадров : Переменный
Частота кадров : 119,880 (24/30) кадров/сек
Минимальная частота кадров : 23,976 кадра/сек
Максимальная частота кадров : 29,970 кадров/сек
Цветовое пространство : YUV
Субдискретизация насыщенности : 4:2:0
Битовая глубина : 8 бит
Тип развёртки : Прогрессивная
Метод сжатия : С потерями
Бит/(Пиксели*Кадры) : 0.039
Размер потока : 478 Мбайт (88%)
Библиотека кодирования : Lavc57.48.101

Аудио
Идентификатор : 0
Формат : MPEG Audio
Версия формата : Version 1
Профиль формата : Layer 3
Режим : Joint stereo
Расширение режима : MS Stereo
Идентификатор кодека : 55
Идентификатор кодека/Подсказка : MP3
Продолжительность : 55 м. 56 с.
Вид битрейта : Постоянный
Битрейт : 128 Кбит/сек
Каналы : 2 канала
Частота : 48,0 КГц
Метод сжатия : С потерями
Размер потока : 51,2 Мбайт (9%)
Выравнивание : Соединение по промежуткам
Продолжительность промежутка : 8 мс. (1,00 видеокадр)

pb.wtf



Скачать Богомол через торрент http://i99.fastpic.ru/big/2018/0312/74/a0c8f3c051eff28f8569de106cf11c74.jpg Скачать фильм Богомол через торрент бесплантно в хорошем качестве Описание: Действие сериала разворачивается в Париже в наше время. Центральным персонажем триллера выступает Жанна Дебер (Кароль Буке) по ... 9.8 10 6
Торрент: Зарегистрирован [2018-03-12 12:40] · скачан: 128 раз
Статус: √ проверено
Размер: 3.18 GB
Как cкачать? Как скачать Богомол через торрент | qTorrent

% Раздел Тема Автор DL S | L
Зарубежные сериалы [ 7.62 GB ] Богомол / La Mante / Сезон: 1 / Серии: 1-6 из 6 [2017 WEBRip 720p] MVO [ColdFilm] bober100 Скачать
1 | 0

28-11-2019 20:33  

Отключить всю рекламу на сайте

    Дорогой пользователь! Огромная просьба, поблагодарите релизера, оцените раздачу и оставьте свои комментарий, если Вы скачали Богомол через торрент бесплатно! Внесите свою лепту в развитие PiratBit!
    Комментировать посты могут только пользователи прошедшие не сложную регистрацию
    Показать сообщения:    

    Богомол через торрент
    Скачать бесплатно Богомол
    Богомол скачать торрент
    Богомол смотреть онлайн
    Cкачать фильм Богомол бесплатно
    Богомол скачать торрент в хорошем качестве
    Богомол смотреть онлайн бесплатно в хорошем качестве


    Вы не можете начинать темы
    Вы не можете отвечать на сообщения
    Вы не можете редактировать свои сообщения
    Вы не можете удалять свои сообщения
    Вы не можете голосовать в опросах
    Вы не можете прикреплять файлы к сообщениям
    Вы можете скачивать файлы