новый адрес
Ссылка на приватное зеркало всего за 1$. Внимание количество ограничено!!!

iTunes

1+1

iTunes

мы

WEB-DL

1

iTunes

Чернобыль

iTunes

Ральф против интернета

Лицензия

ПШазам

Лицензия

Оно 2

Лицензия

30
pack

Вам бонус

ВАЖНО

!!Акция!!

Alien_RageХит недели

RePack

Resident Evil 21

ИГРА 18+

pack

RePack

jed

!!Акция!!

Alien_Rage

RePack

fifa19

RePack

Assassins Creed: Odyssey

RePack

NEED FOR SPEED™ PAYBACK

3 сезон

9 сезон

Бесстыжие 9 сезон

Все сериалы

все сериалы на PB.wtf

RePack

FAR CRY 5
Ребята, катастрофически не хватает 1900р. для оплаты серверов за Октябрь (всвязи с блокировками трафик упал в 3 раза), 1-2р., выручайте.
  

Обратный отсчёт / Сезон: 1 / Серии: 1-16 из 16 (Сергей Попов, Дмитрий Аверин, Максим Кубринский) [2018, Детектив, SATRip] pb.wtf

Обратный отсчёт через торрент pb.wtf

Размер: 9.82 GB | Добавлен: 1 год 8 мес. назад | Торрент скачан:55 раз
Скачать  

12-03-2018 13:12 Обратный отсчёт Скачать торрент  

Обратный отсчётГод выпуска: 2018
Страна: Россия
Жанр: Детектив
Продолжительность: ~ 00:48:00
Субтитры: отсутствуют

Режиссер: Сергей Попов, Дмитрий Аверин, Максим Кубринский



В ролях:

Юрий Колокольников, Полина Максимова, Алексей Ведерников, Анастасия Лазо, Дмитрий Воробьёв, Виктор Рыбчинский, Кира Кауфман, Юлия Шахмуратова, Владимир Трезубов, Анастасия Кипина, Сергей Воробьёв, Дмитрий Гудим, Пауль Орлански, Игорь Грабузов, Андрей Емельянов, Николай Яковлев, Надежда Паршина, Алина Король, Артур Федынко, Антон Колесов, Вячеслав Савицкий, Мария Шманина, Кирилл Стрелков, Максим Тригубчак, Маргарита Аброськина, Виталий Крылов, Алексей Федькин, Валентина Лебедева, Сергей Серёгин

Описание:

Майор Корсаков и лейтенант Гордеева работают в оперативно-розыскном подразделении полиции. Их задача не просто поймать преступника, но и удержать жертву от мести, не дать человеку преступить черту закона. Корсаков, возглавляющий этот отдел, внимателен к подчиненным, не теряет хладнокровия в чрезвычайных ситуациях, всегда остроумен и галантен. Но и у него есть слабость — это еще не угасшие чувства к своей коллеге – Инге Гордеевой. В прошлом их связывали сложные отношения, однако теперь им нужно найти общий язык, чтобы выполнять свой профессиональный долг.

Качество: SATRip
Формат: AVI

Видео: XviD, ~ 1700 Кбит/с, 720x400
Аудио: МР3, 2 ch, 192 Кбит/с
скриншот   скриншот   скриншот  

Общее
Полное имя : D:\Obratnyy.otschet.2017.XviD.SATRip.25Kuzmich\Obratnyy_otschet.s01.e01.XviD.SATRip.25Kuzmich.avi
Формат : AVI
Формат/Информация : Audio Video Interleave
Размер файла : 631 Мбайт
Продолжительность : 47 м. 38 с.
Общий поток : 1852 Кбит/сек
Программа кодирования : VirtualDubMod 1.5.10.3 | www.virtualdub-fr.org || (build 2550/release)
Библиотека кодирования : VirtualDubMod build 2550/release

Видео
Идентификатор : 0
Формат : MPEG-4 Visual
Профиль формата : Advanced Simple@L5
Параметр BVOP формата : 2
Параметр QPel формата : Нет
Параметр GMC формата : Без точки перехода
Параметр матрицы формата : Default (MPEG)
Идентификатор кодека : XVID
Идентификатор кодека/Подсказка : XviD
Продолжительность : 47 м. 38 с.
Битрейт : 1650 Кбит/сек
Ширина : 720 пикселей
Высота : 400 пикселей
Соотношение сторон : 16:9
Частота кадров : 25,000 кадров/сек
Цветовое пространство : YUV
Субдискретизация насыщенности : 4:2:0
Битовая глубина : 8 бит
Тип развёртки : Прогрессивная
Метод сжатия : С потерями
Бит/(Пиксели*Кадры) : 0.229
Размер потока : 562 Мбайт (89%)
Библиотека кодирования : XviD 1.2.1 (UTC 2008-12-04)

Аудио
Идентификатор : 1
Формат : MPEG Audio
Версия формата : Version 1
Профиль формата : Layer 3
Режим : Joint stereo
Расширение режима : MS Stereo
Идентификатор кодека : 55
Идентификатор кодека/Подсказка : MP3
Продолжительность : 47 м. 38 с.
Вид битрейта : Постоянный
Битрейт : 192 Кбит/сек
Каналы : 2 канала
Частота : 48,0 КГц
Метод сжатия : С потерями
Размер потока : 65,4 Мбайт (10%)
Выравнивание : Соединение по промежуткам
Продолжительность промежутка : 40 мс. (1,00 видеокадр)
Время предзагрузки промежутка : 504 мс.
Библиотека кодирования : LAME3.99r
Настройки программы : -m j -V 4 -q 2 -lowpass 18.6 -b 192

Внимание! Раздача ведётся путём добавления новых серий; при каждом добавлении создаётся новый торрент. Чтобы начать докачку новой серии, пользователям необходимо сделать следующее:
(1) остановить скачивание,
(2) удалить старый торрент у себя из клиента (старые серии удалять не надо),
(3) скачать новый торрент и запустить его у себя в клиенте вместо старого, при этом указать клиенту путь в старую папку куда и должно происходить скачивание новых серий.
Ваш клиент при этом должен произвести хеширование (проверку) старой папки (если не производит сам - помогите ему сделать это), и будет докачивать только те серии которых у вас ещё нет. Старые серии при этом не удаляются, а продолжают раздаваться!
Eсли вы уже удалили старые серии, то предотвратить повторную закачку старых серий можно, отжав галочку в соответсвующих местах при запуске нового торрента. По возможности, желательно не удалять старые серии как можно дольше чтобы релизёр не столько продолжал раздавать старые серии, а смог сконцентрироваться на новых.
pb.wtf



Скачать Обратный отсчёт через торрент http://img12.lostpic.net/2018/03/12/0722b39f81e0152dce62be981118f12f.jpg Скачать фильм Обратный отсчёт через торрент бесплантно в хорошем качестве Описание: Майор Корсаков и лейтенант Гордеева работают в оперативно-розыскном подразделении полиции. Их задача не просто поймать ... 9.7 10 11
Торрент: Зарегистрирован [2018-03-21 14:59] · скачан: 55 раз
Статус: √ проверено
Размер: 9.82 GB
Как cкачать? Как скачать Обратный отсчёт через торрент | qTorrent

% Раздел Тема Автор DL S | L
Наши сериалы [ 9.36 GB ] Обратный отсчёт / Сезон: 1 / Серии: 1-16 из 16 [2018 HDTVRip] bober100 Скачать
1 | 0

28-11-2019 20:33  

Отключить всю рекламу на сайте

    Дорогой пользователь! Огромная просьба, поблагодарите релизера, оцените раздачу и оставьте свои комментарий, если Вы скачали Обратный отсчёт через торрент бесплатно! Внесите свою лепту в развитие PiratBit!
    Комментировать посты могут только пользователи прошедшие не сложную регистрацию
    Показать сообщения:    

    Обратный отсчёт через торрент
    Скачать бесплатно Обратный отсчёт
    Обратный отсчёт скачать торрент
    Обратный отсчёт смотреть онлайн
    Cкачать фильм Обратный отсчёт бесплатно
    Обратный отсчёт скачать торрент в хорошем качестве
    Обратный отсчёт смотреть онлайн бесплатно в хорошем качестве


    Вы не можете начинать темы
    Вы не можете отвечать на сообщения
    Вы не можете редактировать свои сообщения
    Вы не можете удалять свои сообщения
    Вы не можете голосовать в опросах
    Вы не можете прикреплять файлы к сообщениям
    Вы можете скачивать файлы