Ссылка на приватное зеркало всего за 1$. Внимание количество ограничено!!!

OK

1+1

iTunes

мы

OK

1

WEB-DLRip

Джокер

Пифагор

Ведьмак / The Witcher сериал

iTunes

ПШазам

ОК

Оно 2

iTunes

30
pack

Вам бонус

ВАЖНО

!!Акция!!

Alien_RageХит недели

RePack

Resident Evil 21

ИГРА 18+

pack

RePack

jed

RePack

fifa19

RePack

Assassins Creed: Odyssey

RePack

NEED FOR SPEED™ PAYBACK

4 сезон

9 сезон

Бесстыжие 9 сезон

Все сериалы

все сериалы на PB.wtf

RePack

FAR CRY 5
  

Пытка / Flay (Эрик Пэм) [2017, ужасы, фэнтези, триллер, драма, детектив, WEB-DL 720p] MVO ["Синема УС"] pb.wtf

Пытка через торрент pb.wtf

Размер: 3.22 GB | Добавлен: 1 год 10 мес. назад | Торрент скачан:37 раз
Скачать  

12-03-2018 13:19 Пытка Скачать торрент  

Пытка / FlayГод выпуска: 2017
Страна: США
Жанр: ужасы, фэнтези, триллер, драма, детектив
Продолжительность: 01:35:21
Перевод: Любительский (многоголосый) - ["Синема УС"]
Субтитры: отсутствуют

Режиссер: Эрик Пэм

rating

В ролях:

Вайолетт Бин, Эль Ламонт, А. Майкл Болдуин, Джонни Уолтер, Эмили Грэйс Данн, Пегги Шотт, Далтон Е. Грэй, Стивен Лэтэм, Дэвид Хэррод мл., Аарон Спайви-Сорреллс

Описание:

После таинственной смерти матери, дочь пытается спасти своего брата и окружающих от злого и безликого духа.

Качество: WEB-DL 720p
Формат: MKV

Видео: 4442 Кбит/с, 1280x672
Аудио#1: AC3, 2 ch, 384 Кбит/с
скриншот  скриншот  скриншот  

Общее
Уникальный идентификатор : 221403447568348897491165341016318644722 (0xA690C0C115CAFC96A284DD67B7E591F2)
Полное имя : D:\Flay.2018.P.WEB-DL.72Op_KOSHARA.mkv
Формат : Matroska
Версия формата : Version 2
Размер файла : 3,22 Гбайт
Продолжительность : 1 ч. 35 м.
Режим общего битрейта : Переменный
Общий поток : 4828 Кбит/сек
Дата кодирования : UTC 2018-03-10 19:21:44
Программа кодирования : mkvmerge v8.3.0 ('Over the Horizon') 64bit
Библиотека кодирования : libebml v1.3.1 + libmatroska v1.4.2

Видео
Идентификатор : 1
Формат : AVC
Формат/Информация : Advanced Video Codec
Профиль формата : High@L4.1
Параметр CABAC формата : Да
Параметр RefFrames формата : 4 кадра
Идентификатор кодека : V_MPEG4/ISO/AVC
Продолжительность : 1 ч. 35 м.
Вид битрейта : Переменный
Битрейт : 4442 Кбит/сек
Максимальный битрейт : 5000 Кбит/сек
Ширина : 1280 пикселей
Высота : 672 пикселя
Соотношение сторон : 1,905
Режим частоты кадров : Постоянный
Частота кадров : 23,976 (24000/1001) кадра/сек
Стандарт вещания : Component
Цветовое пространство : YUV
Субдискретизация насыщенности : 4:2:0
Битовая глубина : 8 бит
Тип развёртки : Прогрессивная
Бит/(Пиксели*Кадры) : 0.211
Размер потока : 2,90 Гбайт (90%)
Default : Да
Forced : Нет
Цветовой диапазон : Limited
Основные цвета : BT.709
Характеристики трансфера : BT.709
Коэффициенты матрицы : BT.709

Аудио
Идентификатор : 2
Формат : AC-3
Формат/Информация : Audio Coding 3
Расширение режима : CM (complete main)
Параметр Endianness формата : Big
Идентификатор кодека : A_AC3
Продолжительность : 1 ч. 35 м.
Вид битрейта : Постоянный
Битрейт : 384 Кбит/сек
Каналы : 2 канала
Расположение каналов : Front: L R
Частота : 48,0 КГц
Частота кадров : 31,250 кадров/сек (1536 spf)
Метод сжатия : С потерями
Размер потока : 262 Мбайт (8%)
Default : Да
Forced : Нет

pb.wtf



Скачать Пытка через торрент http://img12.lostpic.net/2018/03/12/2c817ebaa5a1018134bc5c7aeb78c07c.jpg Скачать фильм Пытка через торрент бесплантно в хорошем качестве Описание: После таинственной смерти матери, дочь пытается спасти своего брата и окружающих от злого и безликого ... 10 10 4
Торрент: Зарегистрирован [2018-03-12 13:19] · скачан: 37 раз
Статус: T временная
Размер: 3.22 GB
Как cкачать? Как скачать Пытка через торрент | qTorrent

% Раздел Тема Автор DL S | L
T Фильмы (мультфильмы) cо спонсором показа (Новинки AVI/MKV) [ 1.37 GB ] Пытка / Flay [2017 WEB-DLRip] MVO ["Синема УС"] bober100 Скачать
1 | 0

28-11-2019 20:33  

Отключить всю рекламу на сайте

    Дорогой пользователь! Огромная просьба, поблагодарите релизера, оцените раздачу и оставьте свои комментарий, если Вы скачали Пытка через торрент бесплатно! Внесите свою лепту в развитие PiratBit!
    Комментировать посты могут только пользователи прошедшие не сложную регистрацию
    Показать сообщения:    

    Пытка через торрент
    Скачать бесплатно Пытка
    Пытка скачать торрент
    Пытка смотреть онлайн
    Cкачать фильм Пытка бесплатно
    Пытка скачать торрент в хорошем качестве
    Пытка смотреть онлайн бесплатно в хорошем качестве


    Вы не можете начинать темы
    Вы не можете отвечать на сообщения
    Вы не можете редактировать свои сообщения
    Вы не можете удалять свои сообщения
    Вы не можете голосовать в опросах
    Вы не можете прикреплять файлы к сообщениям
    Вы можете скачивать файлы