Ссылка на приватное зеркало нашего сайта всего за 1$. Внимание количество ограничено!!!

2 сезон

iTunes

1 сезон

1

iTunes

iTunes

iTunes

1 сезон

RePack

30

ИГРА 18+

pack

ВАЖНО

!!Акция!!

Alien_RageХит недели

RePack

MK11
pack

Забери бонус

RePack

jed

!!Акция!!

Alien_Rage

RePack

fifa19

RePack

Assassins Creed: Odyssey

RePack

NEED FOR SPEED™ PAYBACK

4 сезон

9 сезон

Бесстыжие 9 сезон

Все сериалы

все сериалы на PB.wtf

RePack

FAR CRY 5
  

Высокие ставки. Реванш / Сезон: 2 / Серии: 1-16 из 16 (Максим Бриус) [2018, Криминал, драма, WEBRip 720p] pb.wtf

Высокие ставки. Реванш через торрент pb.wtf

Размер: 15.09 GB | Добавлен: 2 года 7 мес. назад | Торрент скачан:278 раз
Скачать  

12-03-2018 14:27 Высокие ставки. Реванш Скачать торрент  

Высокие ставки. РеваншГод выпуска: 2018
Страна: Россия
Жанр: Криминал, драма
Продолжительность: ~ 00:45:00
Субтитры: отсутствуют

Режиссер: Максим Бриус



В ролях:

Алексей Нилов, Сергей Губанов, Максим Дахненко, Валентин Кузнецов (III), Нина Петровская, Екатерина Рокотова, Андрей Терентьев, Олег Метелев, Роман Павлушев, Александр Дергапутский, Мария Жиганова, Екатерина Полякова, Дмитрий Гудим, Андрей Чуманов, Артём Анчуков, Андрей Никитинских, Сергей Козырев, Александр Кратиров, Александр Кошкарев, Артем Хвостеев, Валерий Кувакин, Михаил Николаев, Алексей Осипов (IV), Владимир Роганов, Галина Сидорова, Антон Успенский

Описание:

В современном мире подпольного казино происходят серьезные перемены. На первый план выходят азартные онлайн-игры, привлекая наибольший ажиотаж и наибольшие ставки. Бандит старой закалки Юрий Сергеев сталкивается с молодой и расчетливой конкуренткой Глорией, которая намерена построить свою преступную бизнес-империю...

Качество: WEBRip 720p
Формат: MKV

Видео: MPEG-4 AVC, ~ 2500 Кбит/с, 1280х720
Аудио: АС3, 2 ch, 192 Кбит/с
скриншот   скриншот   скриншот  

Общее
Уникальный идентификатор : 225806611636399836758145574207071730342 (0xA9E0C580F750D806909CE36608903AA6)
Полное имя : D:\Высокие Ставки. Реванш\Высокие_Ставки_Реванш_01.mkv
Формат : Matroska
Версия формата : Version 4 / Version 2
Размер файла : 949 Мбайт
Продолжительность : 48 м. 4 с.
Режим общего битрейта : Постоянный
Общий поток : 2759 Кбит/сек
Программа кодирования : Lavf57.71.100
Библиотека кодирования : Lavf57.71.100 / Lavf57.71.100
ErrorDetectionType : Per level 1
BUFFER_AVERAGE : 271337
DEVICECONFORMANCETEMPLATE : MP@HL
FSCSETTINGS : 35
ISVBR : 1
VBR_PEAK : 20597075
WMFSDKNEEDED : 0.0.0.0000
WMFSDKVERSION : 12.0.16299.248

Видео
Идентификатор : 1
Формат : AVC
Формат/Информация : Advanced Video Codec
Профиль формата : High@L3.1
Параметр CABAC формата : Да
Параметр RefFrames формата : 1 кадр
Параметр GOP формата : M=1, N=25
Идентификатор кодека : V_MPEG4/ISO/AVC
Продолжительность : 48 м. 4 с.
Вид битрейта : Постоянный
Битрейт : 2500 Кбит/сек
Ширина : 1280 пикселей
Высота : 720 пикселей
Соотношение сторон : 16:9
Режим частоты кадров : Постоянный
Частота кадров : 25,000 кадров/сек
Цветовое пространство : YUV
Субдискретизация насыщенности : 4:2:0
Битовая глубина : 8 бит
Тип развёртки : Прогрессивная
Бит/(Пиксели*Кадры) : 0.109
Размер потока : 842 Мбайт (89%)
Язык : English
Default : Да
Forced : Нет
DURATION : 00:48:04.445000000

Аудио
Идентификатор : 2
Формат : AC-3
Формат/Информация : Audio Coding 3
Расширение режима : CM (complete main)
Параметр Endianness формата : Big
Идентификатор кодека : A_AC3
Продолжительность : 48 м. 4 с.
Вид битрейта : Постоянный
Битрейт : 256 Кбит/сек
Каналы : 2 канала
Расположение каналов : Front: L R
Частота : 48,0 КГц
Частота кадров : 31,250 кадров/сек (1536 spf)
Битовая глубина : 16 бит
Метод сжатия : С потерями
Размер потока : 88,0 Мбайт (9%)
Язык : English
Default : Да
Forced : Нет
DURATION : 00:48:04.480000000

Внимание! Раздача ведётся путём добавления новых серий; при каждом добавлении создаётся новый торрент. Чтобы начать докачку новой серии, пользователям необходимо сделать следующее:
(1) остановить скачивание,
(2) удалить старый торрент у себя из клиента (старые серии удалять не надо),
(3) скачать новый торрент и запустить его у себя в клиенте вместо старого, при этом указать клиенту путь в старую папку куда и должно происходить скачивание новых серий.
Ваш клиент при этом должен произвести хеширование (проверку) старой папки (если не производит сам - помогите ему сделать это), и будет докачивать только те серии которых у вас ещё нет. Старые серии при этом не удаляются, а продолжают раздаваться!
Eсли вы уже удалили старые серии, то предотвратить повторную закачку старых серий можно, отжав галочку в соответствующих местах при запуске нового торрента. По возможности, желательно не удалять старые серии как можно дольше чтобы релизёр не столько продолжал раздавать старые серии, а смог сконцентрироваться на новых.
pb.wtf



Скачать Высокие ставки. Реванш через торрент http://i101.fastpic.ru/big/2018/0307/83/b7dd1a3450364c993c2aac4a69dd3983.jpg Скачать фильм Высокие ставки. Реванш через торрент бесплантно в хорошем качестве Описание: В современном мире подпольного казино происходят серьезные перемены. На первый план выходят азартные онлайн-игры, привлекая ... 9.9 10 13
Info! Золотая раздача, скачанное не засчитывается.
Торрент: Зарегистрирован [2018-03-12 18:51] · скачан: 278 раз
Статус: √ проверено
Размер: 15.09 GB
Как cкачать? Как скачать Высокие ставки. Реванш через торрент | qTorrent

% Раздел Тема Автор DL S | L
Наши сериалы [ 9.41 GB ] Высокие ставки. Реванш / Сезон: 2 / Серии: 1-16 из 16 [2018 WEBRip] bober100 Скачать
1 | 0
Наши сериалы [ 33.84 GB ] Высокие ставки. Реванш / Сезон: 2 / Серии: 1-16 из 16 [2018 WEB-DL 1080p] bober100 Скачать
1 | 0
Наши сериалы [ 36.5 GB ] Высокие ставки реванш / Сезон: 2 / Серии: 1-16 из 16 [2017 HDTV 1080p] [Русский] R.G.Generalfilm White Smoke Скачать
1 | 0

28-11-2019 20:33  

Отключить всю рекламу на сайте

12-03-2018 23:37 Высокие ставки. Реванш Скачать торрент  

Заявлено вроде 24 серии ?pb.wtf



13-03-2018 03:39 Высокие ставки. Реванш Скачать торрент  

серж 650 писал(а):

Заявлено вроде 24 серии ?

в первом сезоне 24 серииpb.wtf



13-03-2018 06:18 Высокие ставки. Реванш Скачать торрент  

золотоpb.wtf



13-03-2018 06:23 Высокие ставки. Реванш Скачать торрент  

Спасибо!)pb.wtf



20-03-2018 18:59 Высокие ставки. Реванш Скачать торрент  

Автору спасибо за труды.А вот режиссёра и сценариста гнать нужно в три шеи от кинематографа.Первая часть-толковый криминальный детектив,вторая полная лажа,удалил после второй серии.Даже не интересно чем закончится.pb.wtf



23-04-2018 17:19 Высокие ставки. Реванш Скачать торрент  

Спасибо pb.wtf



13-07-2018 19:37 Высокие ставки. Реванш Скачать торрент  

Лагает картинка.pb.wtf



    Дорогой пользователь! Огромная просьба, поблагодарите релизера, оцените раздачу и оставьте свои комментарий, если Вы скачали Высокие ставки. Реванш через торрент бесплатно! Внесите свою лепту в развитие PiratBit!
    Комментировать посты могут только пользователи прошедшие не сложную регистрацию
    Показать сообщения:    

    Высокие ставки. Реванш через торрент
    Скачать бесплатно Высокие ставки. Реванш
    Высокие ставки. Реванш скачать торрент
    Высокие ставки. Реванш смотреть онлайн
    Cкачать фильм Высокие ставки. Реванш бесплатно
    Высокие ставки. Реванш скачать торрент в хорошем качестве
    Высокие ставки. Реванш смотреть онлайн бесплатно в хорошем качестве


    Вы не можете начинать темы
    Вы не можете отвечать на сообщения
    Вы не можете редактировать свои сообщения
    Вы не можете удалять свои сообщения
    Вы не можете голосовать в опросах
    Вы не можете прикреплять файлы к сообщениям
    Вы можете скачивать файлы