Ссылка на приватное зеркало всего за 1$. Внимание количество ограничено!!!

OK

1+1

iTunes

мы

OK

1

WEB-DLRip

Джокер

Пифагор

Ведьмак / The Witcher сериал

Лицензия

ПШазам

ОК

Оно 2

iTunes

30
pack

Вам бонус

ВАЖНО

!!Акция!!

Alien_RageХит недели

RePack

Resident Evil 21

ИГРА 18+

pack

RePack

jed

!!Акция!!

Alien_Rage

RePack

fifa19

RePack

Assassins Creed: Odyssey

RePack

NEED FOR SPEED™ PAYBACK

4 сезон

9 сезон

Бесстыжие 9 сезон

Все сериалы

все сериалы на PB.wtf

RePack

FAR CRY 5
  

Сотня / 100 / The 100 / Сезон: 4 / Серии: 1-13 из 13 (Дин Уайт, Джон Шоуолтер, П.Дж. Пеше, Эд Фрэйман, Стивен ДеПол) [2017, фантастика, BDRip 1080p] MVO [LostFilm] pb.wtf

Сотня через торрент pb.wtf

Размер: 46.5 GB | Добавлен: 1 год 10 мес. назад | Торрент скачан:45 раз
Скачать  

12-03-2018 16:11 Сотня Скачать торрент  

Сотня / 100 / The 100
Информация о фильме:

Название: Сотня
Оригинальное название: The 100
Год выпуска: 2017 (4 сезон)
Страна: США / Bonanza Productions, Alloy Entertainment, Warner Bros. Television
Жанр: фантастика
Продолжительность: ~ 00:43:00 серия
Перевод: Профессиональный многоголосый -
Субтитры: отсутствуют
✦ Примечание: Без заставки и логотипа LostFilm!

Режиссер: Дин Уайт, Джон Шоуолтер, П.Дж. Пеше, Эд Фрэйман, Стивен ДеПол

rating

В ролях:

Элиза Тейлор, Пейдж Турко, Томас МакДонелл, Боб Морли, Мари Авгеропулос, Девон Бостик, Линдси Морган, Рики Уиттл, Кристофер Ларкин, Исайя Вашингтон, Генри Иэн Кьюсик, Рэймонд Дж. Бэрри, Ричард Хэрмон, Джозеф Гатт, Ив Харлоу, Дичен Лакмэн, Адина Портер, Кинэн Трэйси, Джонни Витуорт, Алисия Дебнем Кери, Кендалл Кросс, Алекс Паунович, Сарван Бадеша, Джарод Джозеф и др.

Описание:

Экранизация одноименного романа Касс Морган. События в сериале начинают разворачиваться по прошествии девяносто семи лет после того как всю цивилизацию уничтожила страшная атомная война. Высоко в космосе на орбите Земли летает большой космический корабль, именно здесь находятся те, кто выжил после страшной катастрофы. Они единственные кто пережил этот ужасный катаклизм который устроило человечество. Именно с этого последнего пристанища людей на Землю отправляют космический челнок на котором находятся сто малолетних преступников...

Информация о файле:

Качество: BDRip 1080p
Формат: MKV

Видео: ~ 11000 kbps, 1920х1080 (16:9), 23.976 fps
Аудио RUS: AC3, 48 KHz, 6 ch, 384 kbps


corvin2005
Источник The 100 S04 1080p BluRay REMUX AVC DTS-HDMA 5.1 - EPSiLON

скриншот   скриншот   скриншот   скриншот  

Общее
Уникальный идентификатор : 327513761972565419789269923594954370037 (0xF664DB2BDF4D2A593021822A15D46BF5)
Полное имя : D:\The 100\The.100.s04e01.BDRip.1080p.mkv
Формат : Matroska
Версия формата : Version 4 / Version 2
Размер файла : 3,29 Гбайт
Продолжительность : 41 м. 35 с.
Общий поток : 11,3 Мбит/сек
Дата кодирования : UTC 2018-03-08 01:43:25
Программа кодирования : mkvmerge v21.0.0 ('Tardigrades Will Inherit The Earth') 64-bit
Библиотека кодирования : libebml v1.3.5 + libmatroska v1.4.8

Видео
Идентификатор : 1
Формат : AVC
Формат/Информация : Advanced Video Codec
Профиль формата : High@L4.1
Параметр CABAC формата : Да
Параметр RefFrames формата : 4 кадра
Идентификатор кодека : V_MPEG4/ISO/AVC
Продолжительность : 41 м. 35 с.
Битрейт : 10,9 Мбит/сек
Ширина : 1920 пикселей
Высота : 1080 пикселей
Соотношение сторон : 16:9
Режим частоты кадров : Постоянный
Частота кадров : 23,976 (24000/1001) кадра/сек
Цветовое пространство : YUV
Субдискретизация насыщенности : 4:2:0
Битовая глубина : 8 бит
Тип развёртки : Прогрессивная
Бит/(Пиксели*Кадры) : 0.220
Размер потока : 3,18 Гбайт (97%)
Библиотека кодирования : x264 core 152 r2851 ba24899
Настройки программы : cabac=1 / ref=4 / deblock=1:-3:-3 / analyse=0x3:0x133 / me=umh / subme=10 / psy=1 / psy_rd=1.00:0.15 / mixed_ref=1 / me_range=32 / chroma_me=1 / trellis=2 / 8x8dct=1 / cqm=0 / deadzone=21,11 / fast_pskip=0 / chroma_qp_offset=-3 / threads=12 / lookahead_threads=1 / sliced_threads=0 / slices=4 / nr=0 / decimate=1 / interlaced=0 / bluray_compat=0 / constrained_intra=0 / bframes=3 / b_pyramid=2 / b_adapt=2 / b_bias=0 / direct=3 / weightb=1 / open_gop=0 / weightp=2 / keyint=230 / keyint_min=23 / scenecut=40 / intra_refresh=0 / rc_lookahead=40 / rc=2pass / mbtree=1 / bitrate=10934 / ratetol=4.0 / qcomp=0.60 / qpmin=5 / qpmax=50 / qpstep=4 / cplxblur=20.0 / qblur=0.5 / vbv_maxrate=62500 / vbv_bufsize=78125 / nal_hrd=none / filler=0 / ip_ratio=1.40 / aq=1:1.00
Default : Да
Forced : Нет

Аудио
Идентификатор : 2
Формат : AC-3
Формат/Информация : Audio Coding 3
Расширение режима : CM (complete main)
Параметр Endianness формата : Big
Идентификатор кодека : A_AC3
Продолжительность : 41 м. 35 с.
Вид битрейта : Постоянный
Битрейт : 384 Кбит/сек
Каналы : 6 каналов
Расположение каналов : Front: L C R, Side: L R, LFE
Частота : 48,0 КГц
Частота кадров : 31,250 кадров/сек (1536 spf)
Метод сжатия : С потерями
Размер потока : 114 Мбайт (3%)
Default : Да
Forced : Нет

pb.wtf



Скачать Сотня через торрент http://pic1.kartinco.top/images/11/uztka.jpg Скачать фильм Сотня через торрент бесплантно в хорошем качестве Описание: Экранизация одноименного романа Касс Морган. События в сериале начинают разворачиваться по прошествии девяносто семи лет после ... 10 10 5
Info! Золотая раздача, скачанное не засчитывается.
Торрент: Зарегистрирован [2018-03-12 16:11] · скачан: 45 раз
Статус: √ проверено
Размер: 46.5 GB
Как cкачать? Как скачать Сотня через торрент | qTorrent

% Раздел Тема Автор DL S | L
Зарубежные сериалы [ 10.5 GB ] Сотня / The 100 / Сезон: 4 / Серии 1-13 из 13 [2017 WEB-DLRip-AVC] MVO [BaibaKo] GEKADOL Скачать
1 | 0
Зарубежные сериалы [ 9.29 GB ] Сотня / The 100 / Сезон: 4 / Серии 1-13 из 13 [2017 WEB-DLRip-AVC] MVO [LostFilm] GEKADOL Скачать
3 | 0
R.G.Resident - Сериалы, Видео [ 10.52 GB ] Сотня / The 100 / Сезон: 4 / Серии 1 - 13 из 13 [2017 WEB-DLRip-AVC] MVO [AlexFilm] R.G.Resident schultz Скачать
1 | 0
Зарубежные сериалы [ 6.35 GB ] Сотня / The 100 / Сезон 4 / Серии 1-13 из 13 [2017 экранизация WEB-DLRip] MVO [NewStudio] bober100 Скачать
1 | 0
Зарубежные сериалы [ 23.35 GB ] Сотня / The 100 / Сезон: 4 / Серии 1-13 из 13 [2017 WEB-DL 1080p] MVO [BaibaKo] GEKADOL Скачать
1 | 0
Зарубежные сериалы [ 23.04 GB ] Сотня / The 100 / Сезон: 4 / Серии 1-13 из 13 [2017 WEB-DLRip 1080р] MVO [LostFilm] GEKADOL Скачать
1 | 0
Зарубежные сериалы [ 6.35 GB ] Сотня / 100 / The 100 / Сезон 4 / Серии: 1-13 из 13 [2017 WEB-DLRip] MVO God_Slayer Скачать
2 | 0

28-11-2019 20:33  

Отключить всю рекламу на сайте

    Дорогой пользователь! Огромная просьба, поблагодарите релизера, оцените раздачу и оставьте свои комментарий, если Вы скачали Сотня через торрент бесплатно! Внесите свою лепту в развитие PiratBit!
    Комментировать посты могут только пользователи прошедшие не сложную регистрацию
    Показать сообщения:    

    Сотня через торрент
    Скачать бесплатно Сотня
    Сотня скачать торрент
    Сотня смотреть онлайн
    Cкачать фильм Сотня бесплатно
    Сотня скачать торрент в хорошем качестве
    Сотня смотреть онлайн бесплатно в хорошем качестве


    Вы не можете начинать темы
    Вы не можете отвечать на сообщения
    Вы не можете редактировать свои сообщения
    Вы не можете удалять свои сообщения
    Вы не можете голосовать в опросах
    Вы не можете прикреплять файлы к сообщениям
    Вы можете скачивать файлы