MEGA SALE -50% FORZA HORIZON 4 ULTIMATE+ВСЕ DLC+ОНЛАЙН всего за 599р. 299 руб. (супер цена). Внимание количество ограничено!!!

iTunes

1+1

iTunes

мы

iTunes

1

iTunes

Чернобыль

iTunes

Ральф против интернета

Лицензия

ПШазам

Лицензия

Игра престолов

Лицензия

30
pack

ВАЖНО

!!Акция!!

Alien_RageХит недели

RePack

Resident Evil 21

ИГРА 18+

pack

RePack

Metro:Exodus

!!Акция!!

Alien_Rage

RePack

fifa19

RePack

Assassins Creed: Odyssey

RePack

NEED FOR SPEED™ PAYBACK

3 сезон

9 сезон

Бесстыжие 9 сезон

Все сериалы

все сериалы на PB.wtf

RePack

FAR CRY 5
Ребята, катастрофически не хватает 7730р. для оплаты серверов за АВГУСТ (всвязи с блокировками трафик упал в 3 раза), 1-2р., выручайте.
  

Три билборда на границе Эббинга, Миссури / Three Billboards Outside Ebbing, Missouri (Мартин МакДона) [2017, Криминал, Драма, BDRip 1080p] [DVO] (Кубик в Кубе) pb.wtf

Три билборда на границе Эббинга, Миссури через торрент pb.wtf

Раздают: 1 [ 0 KB/s ]
Размер: 15.56 GB | Добавлен: 1 год 6 мес. назад | Торрент скачан:221 раз
Скачать  

12-03-2018 16:23 Три билборда на границе Эббинга, Миссури Скачать торрент  

Три билборда на границе Эббинга, Миссури / Three Billboards Outside Ebbing, Missouri Год выпуска: 2017
Страна: Великобритания, США
Жанр: Криминал, Драма
Продолжительность: 01:55:00
Перевод : Профессиональный двухголосый (Кубик в Кубе)

Режиссер: Мартин МакДона / Martin McDonagh

В ролях: Вуди Харрельсон, Фрэнсис МакДорманд, Калеб Лэндри Джонс, Керри Кондон, Сэм Рокуэлл, Алехандро Барриос, Джейсон Редфорд, Даррел Бритт-Гибсон, Эбби Корниш, Рия Мэй ЭтвудОписание: Спустя несколько месяцев после убийства дочери Милдред Хейс преступники так и не найдены. Отчаявшаяся женщина решается на смелый шаг, арендуя на въезде в город три биллборда с посланием к авторитетному главе полиции Уильяму Уиллоуби. Когда в ситуацию оказывается втянут еще и заместитель шерифа, инфантильный маменькин сынок со склонностью к насилию, офицер Диксон, борьба между Милдред и властями города только усугубляется.


Работа со звуком: messafan

Качество видео: BDRip 1080p
Формат видео: MKV
Видео: AVC, 1920x804 at 23.976 fps, ~15.9 Mbps avg
Аудио: Russian: 48 kHz, DTS, 3/2 (L,C,R,l,r) + LFE ch, ~1509.00 kbps avg |KvK|
Аудио: English: 48 kHz, DTS, 3/2 (L,C,R,l,r) + LFE ch, ~1509.00 kbps avg
Субтитры: English
General
Unique ID : 221771579237972471796425151816720685560 (0xA6D7A70BFFD66238BCF9A65B0A8F99F8)
Complete name : F:\Three.Billboards.Outside.Ebbing.Missouri.2017.1080p.BluRay.DTS5.1-CasStudio.mkv
Format : Matroska
Format version : Version 4 / Version 2
File size : 15.6 GiB
Duration : 1 h 55 min
Overall bit rate : 19.3 Mb/s
Movie name : Three Billboards Outside Ebbing, Missouri (2017) - release by messafan for CasStudio
Encoded date : UTC 2018-03-10 22:59:03
Writing application : mkvmerge v6.7.0 ('Back to the Ground') 64bit built on Jan 8 2014 15:10:52
Writing library : libebml v1.3.0 + libmatroska v1.4.1

Video
ID : 1
Format : AVC
Format/Info : Advanced Video Codec
Format profile : High@L4.1
Format settings : CABAC / 5 Ref Frames
Format settings, CABAC : Yes
Format settings, RefFrames : 5 frames
Codec ID : V_MPEG4/ISO/AVC
Duration : 1 h 55 min
Bit rate : 15.9 Mb/s
Width : 1 920 pixels
Height : 804 pixels
Display aspect ratio : 2.40:1
Frame rate mode : Constant
Frame rate : 23.976 (24000/1001) FPS
Color space : YUV
Chroma subsampling : 4:2:0
Bit depth : 8 bits
Scan type : Progressive
Bits/(Pixel*Frame) : 0.430
Stream size : 12.8 GiB (82%)
Title : Three.Billboards.Outside.Ebbing.Missouri.2017.1080p.BluRay.DD5.1.x264-DON
Writing library : x264 core 148 r2705+54 9f484c1 t_mod_Custom [8-bit@all X86_64]
Encoding settings : cabac=1 / ref=5 / deblock=1:-3:-3 / analyse=0x3:0x133 / me=umh / subme=10 / psy=1 / fade_compensate=0.00 / psy_rd=1.00:0.00 / mixed_ref=1 / me_range=32 / chroma_me=1 / trellis=2 / 8x8dct=1 / cqm=0 / deadzone=21,11 / fast_pskip=0 / chroma_qp_offset=-2 / threads=6 / lookahead_threads=1 / sliced_threads=0 / nr=0 / decimate=0 / interlaced=0 / bluray_compat=0 / constrained_intra=0 / fgo=0 / bframes=8 / b_pyramid=2 / b_adapt=2 / b_bias=0 / direct=3 / weightb=1 / open_gop=0 / weightp=2 / keyint=250 / keyint_min=23 / scenecut=40 / intra_refresh=0 / rc=crf / mbtree=0 / crf=15.9000 / qcomp=0.60 / qpmin=0:0:0 / qpmax=69:69:69 / qpstep=4 / ip_ratio=1.25 / pb_ratio=1.15 / aq=3:0.80 / aq-sensitivity=10.00 / aq-factor=1.00:1.00:1.00 / aq2=0 / aq3=0 / zones=24,572,crf=14.6/5482,5725,b=1.6/5880,6097,b=1.6/6355,6983,b=1.6/7085,7192,b=1.6/7244,7266,b=1.6/8969,9079,b=1.2/46457,46515,b=1.7/46592,46709,b=1.7/46827,47882,b=1.7/68779,68807,b=1.5/70157,70352,b=1.5/70529,70939,b=1.5/73481,73583,b=1.2/76767,77387,crf=15.5/82666,82786,crf=15/102047,102614,b=1.6/103748,103800,crf=15/103849,103896,crf=15/105194,105288,b=1.7/105330,105384,b=1.7/105385,105756,crf=15/118044,118151,b=1.7/118241,118422,b=1.7/118512,118629,b=1.7/118727,118788,b=1.7/118884,119037,b=1.7/145571,145830,b=1.5/146002,146117,b=1.5/157143,157664,b=1.3/159126,165934,b=0.5
Language : English
Default : Yes
Forced : No

Audio #1
ID : 2
Format : DTS
Format/Info : Digital Theater Systems
Mode : 16
Format settings, Endianness : Big
Codec ID : A_DTS
Duration : 1 h 55 min
Bit rate mode : Constant
Bit rate : 1 509 kb/s
Channel(s) : 6 channels
Channel positions : Front: L C R, Side: L R, LFE
Sampling rate : 48.0 kHz
Frame rate : 93.750 FPS (512 SPF)
Bit depth : 24 bits
Compression mode : Lossy
Stream size : 1.22 GiB (8%)
Title : KvK DTS 5.1 @ 1509kbps
Language : Russian
Default : Yes
Forced : No

Audio #2
ID : 3
Format : DTS
Format/Info : Digital Theater Systems
Mode : 16
Format settings, Endianness : Big
Codec ID : A_DTS
Duration : 1 h 55 min
Bit rate mode : Constant
Bit rate : 1 509 kb/s
Channel(s) : 6 channels
Channel positions : Front: L C R, Side: L R, LFE
Sampling rate : 48.0 kHz
Frame rate : 93.750 FPS (512 SPF)
Bit depth : 24 bits
Compression mode : Lossy
Stream size : 1.22 GiB (8%)
Title : English DTS 5.1 @ 1509kbps
Language : English
Default : No
Forced : No

Text
ID : 4
Format : UTF-8
Codec ID : S_TEXT/UTF8
Codec ID/Info : UTF-8 Plain Text
Title : Eng sub
Language : English
Default : No
Forced : No

Menu
00:00:00.000 : :00:00:00.000
00:05:42.092 : :00:05:42.092
00:08:56.911 : :00:08:56.911
00:12:50.019 : :00:12:50.019
00:19:46.644 : :00:19:46.644
00:23:43.547 : :00:23:43.547
00:27:36.363 : :00:27:36.363
00:31:35.769 : :00:31:35.769
00:35:08.690 : :00:35:08.690
00:40:54.827 : :00:40:54.827
00:44:35.715 : :00:44:35.715
00:49:18.789 : :00:49:18.789
00:55:35.916 : :00:55:35.916
00:59:56.134 : :00:59:56.134
01:04:09.888 : :01:04:09.888
01:10:55.293 : :01:10:55.293
01:15:36.699 : :01:15:36.699
01:23:08.734 : :01:23:08.734
01:27:24.489 : :01:27:24.489
01:35:49.702 : :01:35:49.702
01:40:32.693 : :01:40:32.693
01:44:02.194 : :01:44:02.194
01:46:56.910 : :01:46:56.910
01:49:55.005 : :01:49:55.005
скриншот  скриншот  скриншот  
pb.wtf



Скачать Три билборда на границе Эббинга, Миссури через торрент http://i103.fastpic.ru/big/2018/0312/3c/8c0d79dbba48dad8b826b1713f04ed3c.jpg Скачать фильм Три билборда на границе Эббинга, Миссури через торрент бесплантно в хорошем качестве Описание: Спустя несколько месяцев после убийства дочери Милдред Хейс преступники так и не найдены. Отчаявшаяся женщина решается на смелый ... 10 10 6
Info! Золотая раздача, скачанное не засчитывается.
Торрент: Зарегистрирован [2018-03-12 16:23] · скачан: 221 раз
Статус: √ проверено
Размер: 15.56 GB
Как cкачать? Как скачать Три билборда на границе Эббинга, Миссури через торрент | qTorrent

% Раздел Тема Автор DL S | L
Фильмы 2017 [DVDrip, WEB-DLRip, HDrip] (DUB, MVO) [ 2.18 GB ] Три билборда на границе Эббинга Миссури / Three Billboards Outside Ebbing Missouri [2017 BDRip] - [] Twi7ter Скачать
10 | 0
R.G. Resident & PiratVoice - Фильмы, Видео [ 933 MB ] Три Билборда на Границе Эббинга Миссури / Three Billboards Outside Ebbing Missouri Фильм о фильме. [2017 BDRip] VO Клерик БЕЗ ЦЕНЗУРЫ + Original + Sub Клерик Скачать
1 | 0
Ultra HD (UHD: 2K, 4K, 8K) — видео сверхвысокой чёткости [ 15.14 GB ] Три билборда на границе Эббинга Миссури / Three Billboards Outside Ebbing Missouri [2017 UHD BDRip 2160p] DUB + AVO sheker187 Скачать
1 | 0
Фильмы 2017 [DVDrip, WEB-DLRip, HDrip] (DUB, MVO) [ 2.67 GB ] Три билборда на границе Эббинга Миссури / Three Billboards Outside Ebbing Missouri [2017 HDRip-AVC] DUB [] AVO [М.Яроцкий] Ukr - ExKinoRay Enigma2010 Скачать
7 | 0
Фильмы (Blu-ray, BD-Remux, HDDVD) [ 36.73 GB ] Три билборда на границе Эббинга Миссури / Three Billboards Outside Ebbing Missouri [2017 кримина BD Remux 1080p] DVO [Кубик в Кубе] +3xAVO+DUB [] bober100 Скачать
1 | 0
Ultra HD (UHD: 2K, 4K, 8K) — видео сверхвысокой чёткости [ 48.85 GB ] Три билборда на границе Эббинга Миссури / Three Billboards Outside Ebbing Missouri [2017 кримина UHD BD Remux 2160p] DVO [Кубик в Кубе] bober100 Скачать
1 | 0
Фильмы 2017 [DVDrip, WEB-DLRip, HDrip] (DUB, MVO) [ 745 MB ] Три билборда на границе Эббинга Миссури / Three Billboards Outside Ebbing Missouri [2017 BDRip-AVC] sokol_ok Скачать
1 | 0


>> Регистрируемся здесь <<






Отзывы и комментарии о схеме читаем и пишем здесь: ---> Отзывы и комментарии о схеме

Новые благодарочки в телеграм довольных пользователей:
скриншот   скриншот   скриншот   скриншот   скриншот

13-03-2018 14:36 Три билборда на границе Эббинга, Миссури Скачать торрент  

Вот это да! После Есарева теперь стоит пересмотреть и с Кубиками! Спасибо!pb.wtf



14-03-2018 17:30 Три билборда на границе Эббинга, Миссури Скачать торрент  

Спасибо. А размера поменьше можно ?pb.wtf



14-03-2018 17:35 Три билборда на границе Эббинга, Миссури Скачать торрент  

smith72 писал(а):

Спасибо. А размера поменьше можно ?

есть только побольшеpb.wtf



    Дорогой пользователь! Огромная просьба, поблагодарите релизера, оцените раздачу и оставьте свои комментарий, если Вы скачали Три билборда на границе Эббинга, Миссури через торрент бесплатно! Внесите свою лепту в развитие PiratBit!
    Комментировать посты могут только пользователи прошедшие не сложную регистрацию
    Показать сообщения:    

    Три билборда на границе Эббинга, Миссури через торрент
    Скачать бесплатно Три билборда на границе Эббинга, Миссури
    Три билборда на границе Эббинга, Миссури скачать торрент
    Три билборда на границе Эббинга, Миссури смотреть онлайн
    Cкачать фильм Три билборда на границе Эббинга, Миссури бесплатно
    Три билборда на границе Эббинга, Миссури скачать торрент в хорошем качестве
    Три билборда на границе Эббинга, Миссури смотреть онлайн бесплатно в хорошем качестве


    Вы не можете начинать темы
    Вы не можете отвечать на сообщения
    Вы не можете редактировать свои сообщения
    Вы не можете удалять свои сообщения
    Вы не можете голосовать в опросах
    Вы не можете прикреплять файлы к сообщениям
    Вы можете скачивать файлы