Ссылка на приватное зеркало нашего сайта всего за 1$. Внимание количество ограничено!!!

2 сезон

iTunes

1 сезон

1

iTunes

iTunes

iTunes

1 сезон

RePack

30

ИГРА 18+

pack

ВАЖНО

!!Акция!!

Alien_RageХит недели

RePack

MK11
pack

Забери бонус

RePack

jed

!!Акция!!

Alien_Rage

RePack

fifa19

RePack

Assassins Creed: Odyssey

RePack

NEED FOR SPEED™ PAYBACK

4 сезон

9 сезон

Бесстыжие 9 сезон

Все сериалы

все сериалы на PB.wtf

RePack

FAR CRY 5
  

Реальные пацаны / Сезон: 10 / Серии: 1-16 из 16 (Жанна Кадникова) [2018, комедия, WEBRip] pb.wtf

Реальные пацаны через торрент pb.wtf

Размер: 4.78 GB | Добавлен: 2 года 6 мес. назад | Торрент скачан:284 раза
Скачать  

12-03-2018 18:19 Реальные пацаны Скачать торрент  

Реальные пацаныГод выпуска: 2018
Страна: Россия
Жанр: комедия
Продолжительность: ~ 00:24:00
Субтитры: отсутствуют

Режиссер: Жанна Кадникова

В ролях:

Николай Наумов, Антон Богданов, Владимир Селиванов, Станислав Тляшев, Зоя Бербер, Марина Федункив, Мария Скорницкая, Валентина Мазунина

Описание:

Обычный, рядовой российский парень Коля не может определиться между жизнью «на районе» и миром пермской элиты общества. На протяжении всего сериала его ждут увлекательные и смешные истории.

Качество: WEBRip
Формат: AVI

Видео: XviD, ~ 1700 Кбит/с, 720x400
Аудио: AC3, 2 ch, 192 Кбит/с
скриншот   скриншот   скриншот   скриншот   скриншот   скриншот   скриншот  
скриншот  

Общее
Полное имя : D:\Realnyje.pacany.10.2018.WEBRip.Files-x\01.Realnyje.pacany.10.2018.WEBRip.Files-x.avi
Формат : AVI
Формат/Информация : Audio Video Interleave
Размер файла : 301 Мбайт
Продолжительность : 24 м. 6 с.
Общий поток : 1745 Кбит/сек
Программа кодирования : VirtualDubMod 1.5.10.3 | www.virtualdub-fr.org || (build 2550/release)
Библиотека кодирования : VirtualDubMod build 2550/release

Видео
Идентификатор : 0
Формат : MPEG-4 Visual
Профиль формата : Advanced Simple@L5
Параметр BVOP формата : 1
Параметр QPel формата : Нет
Параметр GMC формата : Без точки перехода
Параметр матрицы формата : Выборочная
Идентификатор кодека : XVID
Идентификатор кодека/Подсказка : XviD
Продолжительность : 24 м. 6 с.
Битрейт : 1544 Кбит/сек
Ширина : 720 пикселей
Высота : 400 пикселей
Соотношение сторон : 16:9
Частота кадров : 25,000 кадров/сек
Цветовое пространство : YUV
Субдискретизация насыщенности : 4:2:0
Битовая глубина : 8 бит
Тип развёртки : Прогрессивная
Метод сжатия : С потерями
Бит/(Пиксели*Кадры) : 0.214
Размер потока : 266 Мбайт (88%)
Библиотека кодирования : XviD 73

Аудио
Идентификатор : 1
Формат : AC-3
Формат/Информация : Audio Coding 3
Расширение режима : CM (complete main)
Параметр Endianness формата : Big
Идентификатор кодека : 2000
Продолжительность : 24 м. 6 с.
Вид битрейта : Постоянный
Битрейт : 192 Кбит/сек
Каналы : 2 канала
Расположение каналов : Front: L R
Частота : 48,0 КГц
Частота кадров : 31,250 кадров/сек (1536 spf)
Метод сжатия : С потерями
Размер потока : 33,1 Мбайт (11%)
Выравнивание : Разделение по промежуткам
Продолжительность промежутка : 40 мс. (1,00 видеокадр)
Время предзагрузки промежутка : 500 мс.

Внимание! Раздача ведётся путём добавления новых серий; при каждом добавлении создётся новый торрент. Чтобы начать докачку новой серии, пользователям необходимо сделать следующее:
Остановить скачивание,
Удалить старый торрент у себя из клиента (старые серии удалять не надо),
Скачать новый торрент и запустить его у себя в клиенте вместо старого, при этом указать клиенту путь в старую папку куда и должно происходить скачивание новых серий.
Ваш клиент при этом должен произвести хеширование (проверку) старой папки (если не производит сам - помогите ему сделать это), и будет докачивать только те серии которых у вас ещё нет. Старые серии при этом не удаляются, а продолжают раздаваться!

Eсли вы уже удалили старые серии, то предотвратить повторную закачку старых серий можно, отжав галочку в соответсвующих местах при запуске нового торрента. По возможности, желательно не удалять старые серии как можно дольше чтобы релизёр не столько продолжал раздавать старые серии, а смог сконцентрироваться на новых.
pb.wtf



Скачать Реальные пацаны через торрент https://i100.fastpic.ru/big/2018/0312/08/7bbb7422f4838f7de0ece5e23c064808.jpg Скачать фильм Реальные пацаны через торрент бесплантно в хорошем качестве Описание: Обычный, рядовой российский парень Коля не может определиться между жизнью «на районе» и миром пермской элиты общества. На ... 8.5 10 18
Торрент: Зарегистрирован [2018-03-31 01:05] · скачан: 284 раз
Статус: √ проверено
Размер: 4.78 GB
Как cкачать? Как скачать Реальные пацаны через торрент | qTorrent

% Раздел Тема Автор DL S | L
Наши сериалы [ 5.5 GB ] Реальные пацаны / Сезон: 10 / Серии: 1-16 из 16 [2018 HDTVRip-AVC] bober100 Скачать
1 | 0
Наши сериалы [ 10.51 GB ] Реальные пацаны / Сезон: 10 / Серии: 1-16 из 16 [2018 HDTVRip 720p] bober100 Скачать
1 | 0
Наши сериалы [ 4.64 GB ] Реальные пацаны / Сезон: 10 / Серии: 1-16 из 16 [2018 SATRip] bober100 Скачать
1 | 0
Наши сериалы [ 20.06 GB ] Реальные пацаны / Сезон: 10 / Серии: 1-16 из 16 [2018 HDTV 1080i] bober100 Скачать
1 | 0
TNT serials [ 9.52 GB ] Реальные пацаны / Сезон: 10 / Серии: 1-16 из 16 [2018 WEBRip 720p] bober100 Скачать
1 | 0


Последний раз редактировалось: bober100 (2018-03-31 01:04), всего редактировалось 1 раз

28-11-2019 20:33  

Отключить всю рекламу на сайте

29-03-2018 14:37 Реальные пацаны Скачать торрент  

В 12 правый канал трещит жутко, всю серию.pb.wtf



    Дорогой пользователь! Огромная просьба, поблагодарите релизера, оцените раздачу и оставьте свои комментарий, если Вы скачали Реальные пацаны через торрент бесплатно! Внесите свою лепту в развитие PiratBit!
    Комментировать посты могут только пользователи прошедшие не сложную регистрацию
    Показать сообщения:    

    Реальные пацаны через торрент
    Скачать бесплатно Реальные пацаны
    Реальные пацаны скачать торрент
    Реальные пацаны смотреть онлайн
    Cкачать фильм Реальные пацаны бесплатно
    Реальные пацаны скачать торрент в хорошем качестве
    Реальные пацаны смотреть онлайн бесплатно в хорошем качестве


    Вы не можете начинать темы
    Вы не можете отвечать на сообщения
    Вы не можете редактировать свои сообщения
    Вы не можете удалять свои сообщения
    Вы не можете голосовать в опросах
    Вы не можете прикреплять файлы к сообщениям
    Вы можете скачивать файлы