Ссылка на приватное зеркало нашего сайта всего за 1$. Внимание количество ограничено!!!

2 сезон

iTunes

1 сезон

1

iTunes

iTunes

iTunes

1 сезон

RePack

30

ИГРА 18+

pack

ВАЖНО

!!Акция!!

Alien_RageХит недели

RePack

MK11
pack

Забери бонус

RePack

jed

!!Акция!!

Alien_Rage

RePack

fifa19

RePack

Assassins Creed: Odyssey

RePack

NEED FOR SPEED™ PAYBACK

4 сезон

9 сезон

Бесстыжие 9 сезон

Все сериалы

все сериалы на PB.wtf

RePack

FAR CRY 5
  

Реальные пацаны / Сезон: 10 / Серии: 1-16 из 16 (Жанна Кадникова) [2018, комедия, HDTV 1080i] pb.wtf

Реальные пацаны через торрент pb.wtf

Размер: 20.06 GB | Добавлен: 2 года 6 мес. назад | Торрент скачан:120 раз
Скачать  

12-03-2018 19:09 Реальные пацаны Скачать торрент  

Реальные пацаныГод выпуска: 2018
Страна: Россия
Жанр: комедия
Продолжительность: ~ 00:24:00
Субтитры: отсутствуют

Режиссер: Жанна Кадникова

В ролях:

Николай Наумов, Антон Богданов, Владимир Селиванов, Станислав Тляшев, Зоя Бербер, Марина Федункив, Мария Скорницкая, Валентина Мазунина

Описание:

Обычный, рядовой российский парень Коля не может определиться между жизнью «на районе» и миром пермской элиты общества. На протяжении всего сериала его ждут увлекательные и смешные истории.

Качество: HDTV 1080i
Формат: MPEG-TS

Видео: MPEG-4 AVC, ~ 9600 Кбит/с, 1920x1080
Аудио: Русский (MP2, 2 ch, 192 Кбит/с)
скриншот  скриншот   скриншот   скриншот  

Общее
Идентификатор : 1 (0x1)
Полное имя : D:\Фильмы торренты\Realnye.pacany.s10.HDTV.(1080i).Nikolspup\Realnye.pacany.s10.(01.seriya).HDTV.(1080i).Nikolspup.ts
Формат : MPEG-TS
Размер файла : 1,72 Гбайт
Продолжительность : 23 м. 47 с.
Режим общего битрейта : Переменный
Общий поток : 10,4 Мбит/сек

Видео
Идентификатор : 207 (0xCF)
Идентификатор меню : 2207 (0x89F)
Формат : AVC
Формат/Информация : Advanced Video Codec
Профиль формата : High@L4
Настройки формата : CABAC / 4 Ref Frames
Параметр CABAC формата : Да
Параметр RefFrames формата : 4 кадра
Идентификатор кодека : 27
Продолжительность : 23 м. 47 с.
Битрейт : 9663 Кбит/сек
Ширина : 1920 пикселей
Высота : 1080 пикселей
Соотношение сторон : 16:9
Частота кадров : 25,000 кадров/сек
Стандарт вещания : Component
Цветовое пространство : YUV
Субдискретизация насыщенности : 4:2:0
Битовая глубина : 8 бит
Тип развёртки : Чересстрочная
Метод сохранения типа развёртки : Раздельные поля
Порядок развёртки : Верхнее поле первое
Бит/(Пиксели*Кадры) : 0.186
Размер потока : 1,61 Гбайт (93%)
Цветовой диапазон : Limited
Основные цвета : BT.709
Характеристики трансфера : BT.709
Коэффициенты матрицы : BT.709

Аудио
Идентификатор : 307 (0x133)
Идентификатор меню : 2207 (0x89F)
Формат : MPEG Audio
Версия формата : Version 1
Профиль формата : Layer 2
Идентификатор кодека : 3
Продолжительность : 23 м. 47 с.
Вид битрейта : Постоянный
Битрейт : 192 Кбит/сек
Каналы : 2 канала
Частота : 48,0 КГц
Частота кадров : 41,667 кадра/сек (1152 SPF)
Метод сжатия : С потерями
Размер потока : 32,7 Мбайт (2%)
Язык : Russian

Внимание! Раздача ведётся путём добавления новых серий; при каждом добавлении создётся новый торрент. Чтобы начать докачку новой серии, пользователям необходимо сделать следующее:
Остановить скачивание,
Удалить старый торрент у себя из клиента (старые серии удалять не надо),
Скачать новый торрент и запустить его у себя в клиенте вместо старого, при этом указать клиенту путь в старую папку куда и должно происходить скачивание новых серий.
Ваш клиент при этом должен произвести хеширование (проверку) старой папки (если не производит сам - помогите ему сделать это), и будет докачивать только те серии которых у вас ещё нет. Старые серии при этом не удаляются, а продолжают раздаваться!

Eсли вы уже удалили старые серии, то предотвратить повторную закачку старых серий можно, отжав галочку в соответсвующих местах при запуске нового торрента. По возможности, желательно не удалять старые серии как можно дольше чтобы релизёр не столько продолжал раздавать старые серии, а смог сконцентрироваться на новых.
pb.wtf



Скачать Реальные пацаны через торрент http://i99.fastpic.ru/big/2018/0312/81/af119e01eb94848711fab9af70dcef81.jpg Скачать фильм Реальные пацаны через торрент бесплантно в хорошем качестве Описание: Обычный, рядовой российский парень Коля не может определиться между жизнью «на районе» и миром пермской элиты общества. На ... 9.6 10 20
Info! Золотая раздача, скачанное не засчитывается.
Торрент: Зарегистрирован [2018-03-29 20:05] · скачан: 120 раз
Статус: √ проверено
Размер: 20.06 GB
Как cкачать? Как скачать Реальные пацаны через торрент | qTorrent

% Раздел Тема Автор DL S | L
Наши сериалы [ 5.5 GB ] Реальные пацаны / Сезон: 10 / Серии: 1-16 из 16 [2018 HDTVRip-AVC] bober100 Скачать
1 | 0
Наши сериалы [ 10.51 GB ] Реальные пацаны / Сезон: 10 / Серии: 1-16 из 16 [2018 HDTVRip 720p] bober100 Скачать
1 | 0
Наши сериалы [ 4.78 GB ] Реальные пацаны / Сезон: 10 / Серии: 1-16 из 16 [2018 WEBRip] bober100 Скачать
1 | 0
Наши сериалы [ 4.64 GB ] Реальные пацаны / Сезон: 10 / Серии: 1-16 из 16 [2018 SATRip] bober100 Скачать
1 | 0
TNT serials [ 9.52 GB ] Реальные пацаны / Сезон: 10 / Серии: 1-16 из 16 [2018 WEBRip 720p] bober100 Скачать
1 | 0


Последний раз редактировалось: bober100 (2018-03-29 20:05), всего редактировалось 8 раз(а)

28-11-2019 20:33  

Отключить всю рекламу на сайте

15-03-2018 10:15 Реальные пацаны Скачать торрент  

так он же вроде закончился?pb.wtf



16-03-2018 05:00 Реальные пацаны Скачать торрент  

где 5 серия?pb.wtf



27-03-2018 16:48 Реальные пацаны Скачать торрент  

Спасибо!pb.wtf



    Дорогой пользователь! Огромная просьба, поблагодарите релизера, оцените раздачу и оставьте свои комментарий, если Вы скачали Реальные пацаны через торрент бесплатно! Внесите свою лепту в развитие PiratBit!
    Комментировать посты могут только пользователи прошедшие не сложную регистрацию
    Показать сообщения:    

    Реальные пацаны через торрент
    Скачать бесплатно Реальные пацаны
    Реальные пацаны скачать торрент
    Реальные пацаны смотреть онлайн
    Cкачать фильм Реальные пацаны бесплатно
    Реальные пацаны скачать торрент в хорошем качестве
    Реальные пацаны смотреть онлайн бесплатно в хорошем качестве


    Вы не можете начинать темы
    Вы не можете отвечать на сообщения
    Вы не можете редактировать свои сообщения
    Вы не можете удалять свои сообщения
    Вы не можете голосовать в опросах
    Вы не можете прикреплять файлы к сообщениям
    Вы можете скачивать файлы