Anonymous, добрый вечер, присоединяйтесь к нам в Telegram!, здесь всегда актуальный адрес сайта, оперативная поддержка и многое другое!

>

5.6

iTunes

7.4

MVO

5.7

MVO

1

7.7

1 сезон

6.8

iTunes

7.3

1 сезон

13

6.7

1 сезон

8.3

RePack

30

ULTIMATE

pack

9.9

Лицензия

ВАЖНО

ИГРА 18+

pack

7.3

RePack

MK11

7.7

RePack

jed

7.8

RePack

fifa19

8.5

RePack

RDR2

RePack

NEED FOR SPEED™ PAYBACK

4 сезон

9 сезон

Бесстыжие 9 сезон

Все сериалы

все сериалы на PB.wtf

RePack

FAR CRY 5

Anonymous, добрый вечер, мы катастрофически не успеваем собрать деньги на оплату серверов, помогите нам пожалуйста 5,10,15р., для нас важна любая помощь . В качестве благодарности мы отключим Вам всю рекламу на сайте (укажите свой ник в строку Ваше имя)!

×
  
Magnet ссылка

Реальные пацаны / Сезон: 10 / Серии: 1-16 из 16 (Жанна Кадникова) [2018, комедия, WEBRip 720p] pb.wtf

Реальные пацаны через торрент pb.wtf

Размер: 9.52 GB | Добавлен: 3 года 6 мес. назад | Торрент скачан:508 раз
Смотреть онлайн Реальные пацаны | Скачать    Ребята, помогите собрать деньги на оплату серверов!!!

12-03-2018 22:15 Реальные пацаны Скачать торрент  

Реальные пацаныГод выпуска: 2018
Страна: Россия
Жанр: комедия
Продолжительность: ~ 00:24:00
Субтитры: отсутствуют

Режиссер: Жанна Кадникова

В ролях:

Николай Наумов, Антон Богданов, Владимир Селиванов, Станислав Тляшев, Зоя Бербер, Марина Федункив, Мария Скорницкая, Валентина Мазунина

Описание:

Обычный, рядовой российский парень Коля не может определиться между жизнью «на районе» и миром пермской элиты общества. На протяжении всего сериала его ждут увлекательные и смешные истории.

Качество: WEBRip 720p
Формат: MKV

Видео: MPEG-4 AVC, ~ 3476 Кбит/с, 1280x720
Аудио: AC3, 2 ch, 192 Кбит/с
скриншот   скриншот   скриншот   скриншот  

Общее
Уникальный идентификатор : 208708226830373170875440102019517402801 (0x9D03BE0BE9645338AED4D50FB8504EB1)
Полное имя : D:\Realnyje.pacany.10.2018.WEBRip720.Files-x\01.Realnyje.pacany.10.2018.WEBRip720.Files-x.mkv
Формат : Matroska
Версия формата : Version 2
Размер файла : 649 Мбайт
Продолжительность : 24 м. 15 с.
Общий поток : 3742 Кбит/сек
Дата кодирования : UTC 2018-03-12 21:11:33
Программа кодирования : mkvmerge v7.8.0 ('River Man') 32bit built on Apr 3 2015 12:11:22
Библиотека кодирования : libebml v1.3.1 + libmatroska v1.4.2

Видео
Идентификатор : 1
Формат : AVC
Формат/Информация : Advanced Video Codec
Профиль формата : High@L3.1
Параметр CABAC формата : Да
Параметр RefFrames формата : 1 кадр
Параметр GOP формата : M=1, N=12
Идентификатор кодека : V_MPEG4/ISO/AVC
Продолжительность : 24 м. 15 с.
Битрейт : 3476 Кбит/сек
Ширина : 1280 пикселей
Высота : 720 пикселей
Соотношение сторон : 16:9
Режим частоты кадров : Постоянный
Частота кадров : 25,000 кадров/сек
Стандарт вещания : Component
Цветовое пространство : YUV
Субдискретизация насыщенности : 4:2:0
Битовая глубина : 8 бит
Тип развёртки : Прогрессивная
Бит/(Пиксели*Кадры) : 0.151
Размер потока : 603 Мбайт (93%)
Default : Да
Forced : Нет
Цветовой диапазон : Limited

Аудио
Идентификатор : 2
Формат : AC-3
Формат/Информация : Audio Coding 3
Расширение режима : CM (complete main)
Параметр Endianness формата : Big
Идентификатор кодека : A_AC3
Продолжительность : 24 м. 15 с.
Вид битрейта : Постоянный
Битрейт : 192 Кбит/сек
Каналы : 2 канала
Расположение каналов : Front: L R
Частота : 44,1 КГц
Частота кадров : 28,711 кадров/сек (1536 spf)
Метод сжатия : С потерями
Размер потока : 33,3 Мбайт (5%)
Default : Да
Forced : Нет

Внимание! Раздача ведётся путём добавления новых серий; при каждом добавлении создётся новый торрент. Чтобы начать докачку новой серии, пользователям необходимо сделать следующее:
Остановить скачивание,
Удалить старый торрент у себя из клиента (старые серии удалять не надо),
Скачать новый торрент и запустить его у себя в клиенте вместо старого, при этом указать клиенту путь в старую папку куда и должно происходить скачивание новых серий.
Ваш клиент при этом должен произвести хеширование (проверку) старой папки (если не производит сам - помогите ему сделать это), и будет докачивать только те серии которых у вас ещё нет. Старые серии при этом не удаляются, а продолжают раздаваться!

Eсли вы уже удалили старые серии, то предотвратить повторную закачку старых серий можно, отжав галочку в соответсвующих местах при запуске нового торрента. По возможности, желательно не удалять старые серии как можно дольше чтобы релизёр не столько продолжал раздавать старые серии, а смог сконцентрироваться на новых.
pb.wtf



Скачать Реальные пацаны через торрент https://i100.fastpic.ru/big/2018/0312/08/7bbb7422f4838f7de0ece5e23c064808.jpg Скачать, смотреть онлайн Реальные пацаны бесплантно в хорошем качестве Описание: Обычный, рядовой российский парень Коля не может определиться между жизнью «на районе» и миром пермской элиты общества. На ... 8.8 10 24
Info! Золотая раздача, скачанное не засчитывается.
Торрент: Зарегистрирован [2018-03-31 07:49] · скачан: 508 раз
Статус: √ проверено
Размер: 9.52 GB
Как cкачать? Как скачать Реальные пацаны через торрент | UTorrent

% Раздел Тема Автор DL S | L
Наши сериалы [ 5.5 GB ] Реальные пацаны / Сезон: 10 / Серии: 1-16 из 16 [2018 HDTVRip-AVC] bober100 Скачать
1 | 0
Наши сериалы [ 10.51 GB ] Реальные пацаны / Сезон: 10 / Серии: 1-16 из 16 [2018 HDTVRip 720p] bober100 Скачать
1 | 0
Наши сериалы [ 4.78 GB ] Реальные пацаны / Сезон: 10 / Серии: 1-16 из 16 [2018 WEBRip] bober100 Скачать
1 | 0
Наши сериалы [ 4.64 GB ] Реальные пацаны / Сезон: 10 / Серии: 1-16 из 16 [2018 SATRip] bober100 Скачать
1 | 0
Наши сериалы [ 20.06 GB ] Реальные пацаны / Сезон: 10 / Серии: 1-16 из 16 [2018 HDTV 1080i] bober100 Скачать
1 | 0


Последний раз редактировалось: bober100 (2018-03-31 07:49), всего редактировалось 5 раз(а)

28-11-2019 20:33  

Отключить всю рекламу на сайте

16-03-2018 20:22 Реальные пацаны Скачать торрент  

Большое спасибо за раздачу!!!!!!!!!!!!!!!!!pb.wtf



26-03-2018 16:52 Реальные пацаны Скачать торрент  

Спасибо!!!pb.wtf



    Дорогой пользователь! Огромная просьба, поблагодарите релизера, оцените раздачу и оставьте свои комментарий, если Вы скачали Реальные пацаны через торрент бесплатно!
    Комментировать посты могут только пользователи прошедшие не сложную регистрацию
    Показать сообщения:    

    Реальные пацаны через торрент
    Скачать бесплатно Реальные пацаны
    Реальные пацаны скачать торрент
    Реальные пацаны смотреть онлайн
    Cкачать фильм Реальные пацаны бесплатно
    Реальные пацаны скачать торрент в хорошем качестве
    Реальные пацаны смотреть онлайн бесплатно в хорошем качестве


    Вы не можете начинать темы
    Вы не можете отвечать на сообщения
    Вы не можете редактировать свои сообщения
    Вы не можете удалять свои сообщения
    Вы не можете голосовать в опросах
    Вы не можете прикреплять файлы к сообщениям
    Вы можете скачивать файлы