Ссылка на приватное зеркало всего за 1$. Внимание количество ограничено!!!

iTunes

iTunes

iTunes

1

iTunes

iTunes

iTunes

WEBRip

iTunes

30
pack

$ от Little Big

ВАЖНО

!!Акция!!

Alien_RageХит недели

RePack

Resident Evil 21

ИГРА 18+

pack

RePack

jed

!!Акция!!

Alien_Rage

RePack

fifa19

RePack

Assassins Creed: Odyssey

RePack

NEED FOR SPEED™ PAYBACK

4 сезон

9 сезон

Бесстыжие 9 сезон

Все сериалы

все сериалы на PB.wtf

RePack

FAR CRY 5
  

Проклятие Майя / Xibalba (Curse of the Mayans) (Хоакин Родригес) [2018 г., Ужасы Фантастика, Боевик, Триллер DVDRip, Любительский (многоголосый)(Синема УС)] pb.wtf

Проклятие Майя через торрент pb.wtf

Размер: 1.37 GB | Добавлен: 2 года 4 мес. назад | Торрент скачан:622 раза
Скачать  

13-03-2018 09:23 Проклятие Майя Скачать торрент  

Проклятие Майя / Xibalba (Curse of the Mayans)
Год выпуска: 2018
Страна: Мексика, Three Great Lights Films
Жанр: Ужасы, Фантастика, Боевик, Триллер
Продолжительность: 01:30:22
Перевод: Любительский (многоголосый)(Синема УС)

Режиссер: Хоакин Родригес

rating

В ролях: Ольга Фонда, Карла Ортис, Бернардо Пенья, Стив Уилкокс, Марк Тачер, Хуан Пабло Кастанеда, Маурисио Мартинес, Луис Фелипе Товар, Эктор Ортега

Описание: Американский археолог нанимает команду дайверов, чтобы обследовать древнюю пирамиду Майя, которая находится в подводной пещере в непроходимых джунглях Юкатана. Но, как часто бывает, вместо бесценных артефактов и манускриптов, исследователи находят в гробнице древнее зло.

Доп. информация: присутствуют аудио,текстовые и видео вставки рекламы

Качество: DVDRip
Формат: AVI
Видео кодек: XviD
Аудио кодек: AC3
Видео: Xvid, 720x400, ~1771 Kbps
Аудио#1: AC3, 2 ch, 384 Kbps
Субтитры: отсутствуют
скриншот   скриншот   скриншот   скриншот  

Общее
Полное имя : C:\Users\avolk\Desktop\Проклятие Майя Xibalba (Curse of the Mayans).avi
Формат : AVI
Формат/Информация : Audio Video Interleave
Размер файла : 1,37 Гбайт
Продолжительность : 1 ч. 30 м.
Общий поток : 2165 Кбит/сек
Программа кодирования : VirtualDubMod 1.5.10.2 (build 2540/release)
Библиотека кодирования : VirtualDubMod build 2540/release

Видео
Идентификатор : 0
Формат : MPEG-4 Visual
Профиль формата : Advanced Simple@L5
Настройки формата : BVOP2
Параметр BVOP формата : 2
Параметр QPel формата : Нет
Параметр GMC формата : Без точки перехода
Параметр матрицы формата : Default (MPEG)
Идентификатор кодека : XVID
Идентификатор кодека/Подсказка : XviD
Продолжительность : 1 ч. 30 м.
Битрейт : 1772 Кбит/сек
Ширина : 720 пикселей
Высота : 400 пикселей
Соотношение сторон : 16:9
Частота кадров : 23,976 (24000/1001) кадра/сек
Цветовое пространство : YUV
Субдискретизация насыщенности : 4:2:0
Битовая глубина : 8 бит
Тип развёртки : Прогрессивная
Метод сжатия : С потерями
Бит/(Пиксели*Кадры) : 0.257
Размер потока : 1,12 Гбайт (82%)
Библиотека кодирования : XviD 1.2.1 (UTC 2008-12-04)

Аудио
Идентификатор : 1
Формат : AC-3
Формат/Информация : Audio Coding 3
Идентификатор кодека : 2000
Продолжительность : 1 ч. 30 м.
Вид битрейта : Постоянный
Битрейт : 384 Кбит/сек
Каналы : 2 канала
Расположение каналов : Front: L R
Частота : 48,0 КГц
Частота кадров : 31,250 кадров/сек (1536 SPF)
Битовая глубина : 16 бит
Метод сжатия : С потерями
Размер потока : 248 Мбайт (18%)
Выравнивание : Разделение по промежуткам
Продолжительность промежутка : 42 мс. (1,00 видеокадр)
Время предзагрузки промежутка : 500 мс.
ServiceKind/String : Complete Main

pb.wtf



Скачать Проклятие Майя через торрент http://i103.fastpic.ru/big/2018/0313/8e/6718ed4a832f9911ce2fea37bf33a38e.jpg Скачать фильм Проклятие Майя через торрент бесплантно в хорошем качестве Описание: Американский археолог нанимает команду дайверов, чтобы обследовать древнюю пирамиду Майя, которая находится в подводной пещере в ... 8.1 10 8
Торрент: Зарегистрирован [2018-03-13 09:23] · скачан: 622 раз
Статус: √ проверено
Размер: 1.37 GB
Как cкачать? Как скачать Проклятие Майя через торрент | qTorrent

28-11-2019 20:33  

Отключить всю рекламу на сайте

13-03-2018 09:30 Проклятие Майя Скачать торрент  

3 И 4 СКРИНЫ-ЗАЧЁТНЫЕ!!! pb.wtf



13-03-2018 13:45 Проклятие Майя Скачать торрент  

bolvi68 писал(а):

3 И 4 СКРИНЫ-ЗАЧЁТНЫЕ!!!

Не говори, если бы не скрины мимо бы прошел. А так сразу видна суть шикарного фильма, грех не скачать.pb.wtf



13-03-2018 16:40 Проклятие Майя Скачать торрент  

это просто какой то писец.... даже тв3 нервно курит в сторонкеpb.wtf



13-03-2018 17:46 Проклятие Майя Скачать торрент  

заценим.pb.wtf



13-03-2018 17:49 Проклятие Майя Скачать торрент  

XALAVAXALBApb.wtf



    Дорогой пользователь! Огромная просьба, поблагодарите релизера, оцените раздачу и оставьте свои комментарий, если Вы скачали Проклятие Майя через торрент бесплатно! Внесите свою лепту в развитие PiratBit!
    Комментировать посты могут только пользователи прошедшие не сложную регистрацию
    Показать сообщения:    

    Проклятие Майя через торрент
    Скачать бесплатно Проклятие Майя
    Проклятие Майя скачать торрент
    Проклятие Майя смотреть онлайн
    Cкачать фильм Проклятие Майя бесплатно
    Проклятие Майя скачать торрент в хорошем качестве
    Проклятие Майя смотреть онлайн бесплатно в хорошем качестве


    Вы не можете начинать темы
    Вы не можете отвечать на сообщения
    Вы не можете редактировать свои сообщения
    Вы не можете удалять свои сообщения
    Вы не можете голосовать в опросах
    Вы не можете прикреплять файлы к сообщениям
    Вы можете скачивать файлы