Ссылка на приватное зеркало всего за 1$. Внимание количество ограничено!!!

OK

1+1

iTunes

мы

OK

1

WEB-DLRip

Джокер

Пифагор

Ведьмак / The Witcher сериал

Лицензия

ПШазам

ОК

Оно 2

iTunes

30
pack

Вам бонус

ВАЖНО

!!Акция!!

Alien_RageХит недели

RePack

Resident Evil 21

ИГРА 18+

pack

RePack

jed

RePack

fifa19

RePack

Assassins Creed: Odyssey

RePack

NEED FOR SPEED™ PAYBACK

4 сезон

9 сезон

Бесстыжие 9 сезон

Все сериалы

все сериалы на PB.wtf

RePack

FAR CRY 5
  

Из отличницы в порнозвезду / From Straight A's to XXX (Канада) [2017, драма, WEB-DL 720p] MVO ["Синема УС"] pb.wtf

Из отличницы в порнозвезду через торрент pb.wtf

Размер: 3.06 GB | Добавлен: 1 год 10 мес. назад | Торрент скачан:231 раз
Скачать  

13-03-2018 09:49 Из отличницы в порнозвезду Скачать торрент  

Из отличницы в порнозвезду / From Straight A's to XXXГод выпуска: 2017
Страна: США
Жанр: драма
Продолжительность: 01:30:11
Перевод: Любительский (многоголосый) ["Синема УС"]
Субтитры: отсутствуют

Режиссер: Канада

rating

В ролях:

Хейли Пуллос, Саша Клементс, Джадд Нельсон, Джессика Лу, Питер Грэхэм-Годрэу, Имали Перера, Гаррет Блэк, Элисон Бэт, Дженна Романин, Карди Вонг

Описание:

Молодая девушка, с отличием закончив школу, поступает в престижный университет. Но вот беда - стоимость обучения слишком высока, и родители не в состоянии сами её потянуть. Поэтому Мириам решается на отчаянные меры - стать порноактриссой! Так что теперь ей приходится балансировать между жизнью простой студентки и жизнью горячей порнозвезды Бэлл Нокс!

Качество: WEB-DL 720p
Формат: MKV
Видео кодек: H.264
Аудио кодек: AC3

Видео: 4473 Kb/s, 1280x720
Аудио#1: Русский, (AC3, 2 ch, 384 Кбит/с)
скриншот  скриншот  скриншот  

Общее
Уникальный идентификатор : 248976366804842492830448128660159021365 (0xBB4F1AA18A78EB4492FC7CC89E2B4135)
Полное имя : D:\From.Straight.As.to.XXX.2017.P.WEB-DL.72Op_KOSHARA.mkv
Формат : Matroska
Версия формата : Version 2
Размер файла : 3,06 Гбайт
Продолжительность : 1 ч. 30 м.
Режим общего битрейта : Переменный
Общий поток : 4859 Кбит/сек
Дата кодирования : UTC 2018-03-12 17:21:32
Программа кодирования : mkvmerge v8.3.0 ('Over the Horizon') 64bit
Библиотека кодирования : libebml v1.3.1 + libmatroska v1.4.2

Видео
Идентификатор : 1
Формат : AVC
Формат/Информация : Advanced Video Codec
Профиль формата : High@L4.1
Параметр CABAC формата : Да
Параметр RefFrames формата : 4 кадра
Идентификатор кодека : V_MPEG4/ISO/AVC
Продолжительность : 1 ч. 30 м.
Вид битрейта : Переменный
Битрейт : 4473 Кбит/сек
Максимальный битрейт : 5000 Кбит/сек
Ширина : 1280 пикселей
Высота : 720 пикселей
Соотношение сторон : 16:9
Режим частоты кадров : Постоянный
Частота кадров : 23,976 (24000/1001) кадра/сек
Стандарт вещания : Component
Цветовое пространство : YUV
Субдискретизация насыщенности : 4:2:0
Битовая глубина : 8 бит
Тип развёртки : Прогрессивная
Бит/(Пиксели*Кадры) : 0.198
Размер потока : 2,76 Гбайт (90%)
Default : Да
Forced : Нет
Цветовой диапазон : Limited
Основные цвета : BT.709
Характеристики трансфера : BT.709
Коэффициенты матрицы : BT.709

Аудио
Идентификатор : 2
Формат : AC-3
Формат/Информация : Audio Coding 3
Расширение режима : CM (complete main)
Параметр Endianness формата : Big
Идентификатор кодека : A_AC3
Продолжительность : 1 ч. 30 м.
Вид битрейта : Постоянный
Битрейт : 384 Кбит/сек
Каналы : 2 канала
Расположение каналов : Front: L R
Частота : 48,0 КГц
Частота кадров : 31,250 кадров/сек (1536 spf)
Метод сжатия : С потерями
Размер потока : 248 Мбайт (8%)
Default : Да
Forced : Нет
pb.wtf



Скачать Из отличницы в порнозвезду через торрент http://img12.lostpic.net/2018/03/13/1a6cbf2949f179dbf3c96fa32c464d10.jpg Скачать фильм Из отличницы в порнозвезду через торрент бесплантно в хорошем качестве Описание: Молодая девушка, с отличием закончив школу, поступает в престижный университет. Но вот беда - стоимость обучения слишком высока, ... 9.4 10 7
Торрент: Зарегистрирован [2018-03-13 09:49] · скачан: 231 раз
Статус: T временная
Размер: 3.06 GB
Как cкачать? Как скачать Из отличницы в порнозвезду через торрент | qTorrent



Последний раз редактировалось: bober100 (2018-03-13 16:22), всего редактировалось 1 раз

28-11-2019 20:33  

Отключить всю рекламу на сайте

13-03-2018 12:43 Из отличницы в порнозвезду Скачать торрент  

как в анекдоте про отличницу ставшей проституткой- повезло!pb.wtf



13-03-2018 14:38 Из отличницы в порнозвезду Скачать торрент  

проблемы и правда очень серьезные-не получается оплачивать высшее-оплачивай будучи проституткой совмещением. pb.wtf



    Дорогой пользователь! Огромная просьба, поблагодарите релизера, оцените раздачу и оставьте свои комментарий, если Вы скачали Из отличницы в порнозвезду через торрент бесплатно! Внесите свою лепту в развитие PiratBit!
    Комментировать посты могут только пользователи прошедшие не сложную регистрацию
    Показать сообщения:    

    Из отличницы в порнозвезду через торрент
    Скачать бесплатно Из отличницы в порнозвезду
    Из отличницы в порнозвезду скачать торрент
    Из отличницы в порнозвезду смотреть онлайн
    Cкачать фильм Из отличницы в порнозвезду бесплатно
    Из отличницы в порнозвезду скачать торрент в хорошем качестве
    Из отличницы в порнозвезду смотреть онлайн бесплатно в хорошем качестве


    Вы не можете начинать темы
    Вы не можете отвечать на сообщения
    Вы не можете редактировать свои сообщения
    Вы не можете удалять свои сообщения
    Вы не можете голосовать в опросах
    Вы не можете прикреплять файлы к сообщениям
    Вы можете скачивать файлы