Ссылка на приватное зеркало нашего сайта всего за 1$. Внимание количество ограничено!!!

2 сезон

iTunes

1 сезон

1

2 сезон

2 сезон

iTunes

1 сезон

RePack

30

Новинка

ВАЖНО

ИГРА 18+

pack

RePack

MK11
pack

Забери бонус

RePack

jed

!!Акция!!

Alien_Rage

RePack

fifa19

RePack

Assassins Creed: Odyssey

RePack

NEED FOR SPEED™ PAYBACK

4 сезон

9 сезон

Бесстыжие 9 сезон

Все сериалы

все сериалы на PB.wtf

RePack

FAR CRY 5
  

Вне времени / Timeless / Сезон: 2 / Серии: 1-12 из 12 (Нил Маршалл) [2018, Фантастика, боевик, драма, приключения, WEB-DLRip] MVO [LostFilm] pb.wtf

Вне времени через торрент pb.wtf

Размер: 6.37 GB | Добавлен: 1 год 10 мес. назад | Торрент скачан:42 раза
Скачать  

13-03-2018 18:08 Вне времени Скачать торрент  

Вне времени / TimelessГод выпуска: 2018
Страна: США
Жанр: Фантастика, боевик, драма, приключения
Продолжительность: ~ 00:45:00
Перевод: Профессиональный многоголосый | LostFilm
Субтитры: отсутствуют

Режиссер: Нил Маршалл

rating

В ролях:

Клаудия Дурмит, Мэтт Фрюэр, Джордан Гардинер, Брекен Ханке, Сакина Джэффри, Хиро Канагава, Тревор Лернер

Описание:

Сюжет повествует о команде из трёх человек, путешествующих по времени в поисках могущественного гада, который вознамерился переписать историю человечества. Если трио не успеет сработаться и сорвать преступный план, миру, естественно, грозит катастрофа.

Качество: WEB-DLRip | Без заставки и логотипа LostFilm.
Формат: AVI

Видео: 720x400 at 23.976 fps, XviD, ~1500 kbps avg
Аудио: Russian: 48 kHz, MP3, 2/0 (L,R) ch, ~128 kbps avg |Многоголосый закадровый, LostFilm|
Аудио: English: 48 kHz, MP3, 2/0 (L,R) ch, ~128 kbps avg
скриншот  скриншот  скриншот  скриншот  

Общее
Полное имя : E:\Вне времени (сезон 2) Timelessl (2018) WEB-DLRip - LostFilm\Timeless.S02E01.WEB-DLRip.Rus.Eng.DV.LostFilm.avi
Формат : AVI
Формат/Информация : Audio Video Interleave
Размер файла : 538 Мбайт
Продолжительность : 42 м. 29 с.
Общий поток : 1770 Кбит/сек
Название фильма : Timeless.S02E01.WEB-DLRip.Rus.Eng.DV.LostFilm / NNM-Club
Программа кодирования : VirtualDubModRus 1.5.10.2 (build 2542/release)
Библиотека кодирования : VirtualDubMod build 2542/release

Видео
Идентификатор : 0
Формат : MPEG-4 Visual
Профиль формата : Advanced Simple@L5
Настройки формата : BVOP2
Параметр BVOP формата : 2
Параметр QPel формата : Нет
Параметр GMC формата : Без точки перехода
Параметр матрицы формата : Default (H.263)
Идентификатор кодека : XVID
Идентификатор кодека/Подсказка : XviD
Продолжительность : 42 м. 29 с.
Битрейт : 1500 Кбит/сек
Ширина : 720 пикселей
Высота : 400 пикселей
Соотношение сторон : 16:9
Частота кадров : 23,976 (24000/1001) кадра/сек
Цветовое пространство : YUV
Субдискретизация насыщенности : 4:2:0
Битовая глубина : 8 бит
Тип развёртки : Прогрессивная
Метод сжатия : С потерями
Бит/(Пиксели*Кадры) : 0.217
Размер потока : 456 Мбайт (85%)
Заголовок : Rip by DriverV / NNM-Club
Библиотека кодирования : XviD 67

Аудио #1
Идентификатор : 1
Формат : MPEG Audio
Версия формата : Version 1
Профиль формата : Layer 3
Настройки формата : Joint stereo / MS Stereo
Идентификатор кодека : 55
Идентификатор кодека/Подсказка : MP3
Продолжительность : 42 м. 29 с.
Вид битрейта : Постоянный
Битрейт : 128 Кбит/сек
Каналы : 2 канала
Частота : 48,0 КГц
Метод сжатия : С потерями
Размер потока : 38,9 Мбайт (7%)
Выравнивание : Соединение по промежуткам
Продолжительность промежутка : 42 мс. (1,00 видеокадр)
Время предзагрузки промежутка : 504 мс.

Аудио #2
Идентификатор : 2
Формат : MPEG Audio
Версия формата : Version 1
Профиль формата : Layer 3
Настройки формата : Joint stereo / MS Stereo
Идентификатор кодека : 55
Идентификатор кодека/Подсказка : MP3
Продолжительность : 42 м. 29 с.
Вид битрейта : Постоянный
Битрейт : 128 Кбит/сек
Каналы : 2 канала
Частота : 48,0 КГц
Метод сжатия : С потерями
Размер потока : 38,9 Мбайт (7%)
Выравнивание : Соединение по промежуткам
Продолжительность промежутка : 42 мс. (1,00 видеокадр)
Время предзагрузки промежутка : 504 мс.

Внимание! Раздача ведётся путём добавления новых серий; при каждом добавлении создётся новый торрент. Чтобы начать докачку новой серии, пользователям необходимо сделать следующее:
Остановить скачивание.
Удалить старый торрент у себя из клиента (старые серии удалять не надо).
Скачать новый торрент и запустить его у себя в клиенте вместо старого, при этом указать клиенту путь в старую папку куда и должно происходить скачивание новых серий.
Ваш клиент при этом должен произвести хеширование (проверку) старой папки (если не производит сам - помогите ему сделать это), и будет докачивать только те серии которых у вас ещё нет. Старые серии при этом не удаляются, а продолжают раздаваться!
Eсли вы уже удалили старые серии, то предотвратить повторную закачку старых серий можно, отжав галочку в соответсвующих местах при запуске нового торрента. По возможности, желательно не удалять старые серии как можно дольше чтобы релизёр не столько продолжал раздавать старые серии, а смог сконцентрироваться на новых.
pb.wtf



Скачать Вне времени через торрент http://img12.lostpic.net/2018/03/13/d2fe99f80bd0173cf1979a90dc09ad6f.jpg Скачать фильм Вне времени через торрент бесплантно в хорошем качестве Описание: Сюжет повествует о команде из трёх человек, путешествующих по времени в поисках могущественного гада, который вознамерился ... 8.9 10 9
Торрент: Зарегистрирован [2018-12-25 05:00] · скачан: 42 раз
Статус: √ проверено
Размер: 6.37 GB
Как cкачать? Как скачать Вне времени через торрент | qTorrent

% Раздел Тема Автор DL S | L
Зарубежные сериалы [ 30.84 GB ] Вне времени / Timeless / Сезон: 2 / Серии: 1-12 из 12 [2018 WEB-DL 1080p] MVO [LostFilm] bober100 Скачать
1 | 0
Зарубежные сериалы [ 5.86 GB ] Вне времени / Timeless / Сезон: 2 / Серии: 1-12 из 12 [2018 WEB-DLRip] MVO [Jaskier] bober100 Скачать
1 | 0
Зарубежные сериалы [ 11.07 GB ] Вне времени / Timeless / Сезон: 2 / Серии: 1-12 из 12 [2018 WEB-DL 720p] MVO [Jaskier] bober100 Скачать
1 | 0
Зарубежные сериалы [ 28.99 GB ] Вне времени / Timeless / Сезон: 2 / Серии: 1-12 из 12 [2018 WEB-DL 1080p] MVO [Jaskier] bober100 Скачать
1 | 0
Зарубежные сериалы [ 6.32 GB ] Вне времени / Timeless / Сезон: 2 / Серии: 1-12 из 12 [2018 WEBRip] killermax2013 Скачать
1 | 0


Последний раз редактировалось: bober100 (2018-12-25 05:00), всего редактировалось 8 раз(а)

28-11-2019 20:33  

Отключить всю рекламу на сайте

14-03-2018 05:29 Вне времени Скачать торрент  

Так первый сезон разве не 2016 года, а не 2018?pb.wtf



14-03-2018 05:34 Вне времени Скачать торрент  

Eis писал(а):

Так первый сезон разве не 2016 года, а не 2018?

Спасибо исправил pb.wtf



23-12-2018 22:15 Вне времени Скачать торрент  

странно, что в новых сериалах появился... 2 сезон давно кончилсяpb.wtf



    Дорогой пользователь! Огромная просьба, поблагодарите релизера, оцените раздачу и оставьте свои комментарий, если Вы скачали Вне времени через торрент бесплатно! Внесите свою лепту в развитие PiratBit!
    Комментировать посты могут только пользователи прошедшие не сложную регистрацию
    Показать сообщения:    

    Вне времени через торрент
    Скачать бесплатно Вне времени
    Вне времени скачать торрент
    Вне времени смотреть онлайн
    Cкачать фильм Вне времени бесплатно
    Вне времени скачать торрент в хорошем качестве
    Вне времени смотреть онлайн бесплатно в хорошем качестве


    Вы не можете начинать темы
    Вы не можете отвечать на сообщения
    Вы не можете редактировать свои сообщения
    Вы не можете удалять свои сообщения
    Вы не можете голосовать в опросах
    Вы не можете прикреплять файлы к сообщениям
    Вы можете скачивать файлы