Ссылка на приватное зеркало нашего сайта всего за 1$. Внимание количество ограничено!!!

2 сезон

iTunes

1 сезон

1

2 сезон

2 сезон

iTunes

1 сезон

RePack

30

Ultimate

ВАЖНО

ИГРА 18+

pack

RePack

MK11
pack

Забери бонус

RePack

jed

!!Акция!!

Alien_Rage

RePack

fifa19

RePack

Assassins Creed: Odyssey

RePack

NEED FOR SPEED™ PAYBACK

4 сезон

9 сезон

Бесстыжие 9 сезон

Все сериалы

все сериалы на PB.wtf

RePack

FAR CRY 5
  

Стэн против сил зла / Stan Against Evil / Сезон: 2 / Серии: 1-8 из 8 (Джек Бишоп) [2017, Ужасы, комедия, WEB-DLRip] MVO [NewStudio] pb.wtf

Стэн против сил зла через торрент pb.wtf

Размер: 2.34 GB | Добавлен: 2 года 8 мес. назад | Торрент скачан:62 раза
Скачать  

13-03-2018 20:56 Стэн против сил зла Скачать торрент  

Стэн против сил зла / Stan Against EvilГод выпуска: 2017
Страна: США
Жанр: Ужасы, комедия
Продолжительность: ~ 00:25:00 (Серия)
Перевод: Профессиональный многоголосый -
Субтитры: отсутствуют

Режиссер: Джек Бишоп

rating

В ролях:


Джон К. МакГинли (Stanley Miller), Нат Муни (Deputy Leon Drinkwater), Дебора Бэйкер мл. (Denise Miller), Джанет Вэрни (Evie Barret), Mick Ignis (Stella Stanas), Даниэль Фелан (Karen), Грегори Нассиф Ст. Джон (Father Mike), Чарльз Грин (Farmer), Sallye McDougald Hooks (Stella Stanis), Д.Л. Андерсон (Ida Putnam), Ник Армстронг (Cliff), Мика Шэйн Боллинджер (Craig)

Описание:

Сварливый и принципиальный шериф городка Нью-Гэмпшир Стэнли Миллер теряет должность после того, как устраивает скандал в самый неподходящий момент — на похоронах собственной жены. Вскоре новый шериф Иви Баррет узнает, что городу угрожают свирепые демоны. Она уговаривает Стэнли помочь ей отразить атаку монстров.

Качество: WEB-DLRip
Формат: AVI

Видео: XviD, ~ 1650 Кбит/с, 720x400
Аудио#1: Русский (MP3, 2 ch, 128 Кбит/с)
Аудио#2: английский (MP3, 2 ch, 128 Кбит/с)
скриншот   скриншот   скриншот   скриншот   скриншот   скриншот  

Общее
Полное имя : D:\Стэн против сил зла (Season 02)\Stan.Against.Evil.s02e01.WEBDLRip.NewStudio.TV.avi
Формат : AVI
Формат/Информация : Audio Video Interleave
Размер файла : 298 Мбайт
Продолжительность : 21 м. 22 с.
Общий поток : 1947 Кбит/сек
Программа кодирования : VirtualDubMod 1.5.10.2 (build 2540/release)
Библиотека кодирования : VirtualDubMod build 2540/release

Видео
Идентификатор : 0
Формат : MPEG-4 Visual
Профиль формата : Advanced Simple@L5
Параметр BVOP формата : 2
Параметр QPel формата : Да
Параметр GMC формата : Без точки перехода
Параметр матрицы формата : Default (MPEG)
Режим смешивания : Сжатый битовый поток
Идентификатор кодека : XVID
Идентификатор кодека/Подсказка : XviD
Продолжительность : 21 м. 22 с.
Битрейт : 1677 Кбит/сек
Ширина : 720 пикселей
Высота : 400 пикселей
Соотношение сторон : 16:9
Частота кадров : 23,976 (23976/1000) кадра/сек
Цветовое пространство : YUV
Субдискретизация насыщенности : 4:2:0
Битовая глубина : 8 бит
Тип развёртки : Прогрессивная
Метод сжатия : С потерями
Бит/(Пиксели*Кадры) : 0.243
Размер потока : 256 Мбайт (86%)
Библиотека кодирования : XviD 73

Аудио #1
Идентификатор : 1
Формат : MPEG Audio
Версия формата : Version 1
Профиль формата : Layer 3
Режим : Joint stereo
Расширение режима : MS Stereo
Идентификатор кодека : 55
Идентификатор кодека/Подсказка : MP3
Продолжительность : 21 м. 22 с.
Вид битрейта : Постоянный
Битрейт : 128 Кбит/сек
Каналы : 2 канала
Частота : 48,0 КГц
Метод сжатия : С потерями
Размер потока : 19,6 Мбайт (7%)
Выравнивание : Соединение по промежуткам
Продолжительность промежутка : 42 мс. (1,00 видеокадр)
Время предзагрузки промежутка : 504 мс.

Аудио #2
Идентификатор : 2
Формат : MPEG Audio
Версия формата : Version 1
Профиль формата : Layer 3
Режим : Joint stereo
Идентификатор кодека : 55
Идентификатор кодека/Подсказка : MP3
Продолжительность : 21 м. 22 с.
Вид битрейта : Постоянный
Битрейт : 128 Кбит/сек
Каналы : 2 канала
Частота : 48,0 КГц
Метод сжатия : С потерями
Размер потока : 19,6 Мбайт (7%)
Выравнивание : Соединение по промежуткам
Продолжительность промежутка : 42 мс. (1,00 видеокадр)
Время предзагрузки промежутка : 504 мс.
Библиотека кодирования : LAME3.99r
Настройки программы : -m j -V 4 -q 2 -lowpass 17 -b 128

pb.wtf



Скачать Стэн против сил зла через торрент http://img12.lostpic.net/2018/03/13/20c945764ff979b6f266eaca60b30f98.png Скачать фильм Стэн против сил зла через торрент бесплантно в хорошем качестве Описание: Сварливый и принципиальный шериф городка Нью-Гэмпшир Стэнли Миллер теряет должность после того, как устраивает скандал в самый ... 10 10 4
Торрент: Зарегистрирован [2018-03-13 20:56] · скачан: 62 раз
Статус: √ проверено
Размер: 2.34 GB
Как cкачать? Как скачать Стэн против сил зла через торрент | qTorrent

% Раздел Тема Автор DL S | L
Зарубежные сериалы [ 13.67 GB ] Стэн против сил зла / Stan Against Evil / Сезон: 2 / Серии: 1-8 из 8 [2018 WEBRip 1080p] MVO [голос с MTV] bober100 Скачать
1 | 0
Зарубежные сериалы [ 1.96 GB ] Стэн против сил зла / Stan Against Evil / Сезон: 2 / Серии: 1-8 из 8 [2017 WEBRip] MVO [голос с MTV] bober100 Скачать
1 | 0
Зарубежные сериалы [ 5.78 GB ] Стэн против сил зла / Stan Against Evil / Сезон: 2 / Серии 1-8 из 8 [2017 WEB-DL 720p] MVO [NewStudio] GEKADOL Скачать
1 | 0

28-11-2019 20:33  

Отключить всю рекламу на сайте

    Дорогой пользователь! Огромная просьба, поблагодарите релизера, оцените раздачу и оставьте свои комментарий, если Вы скачали Стэн против сил зла через торрент бесплатно! Внесите свою лепту в развитие PiratBit!
    Комментировать посты могут только пользователи прошедшие не сложную регистрацию
    Показать сообщения:    

    Стэн против сил зла через торрент
    Скачать бесплатно Стэн против сил зла
    Стэн против сил зла скачать торрент
    Стэн против сил зла смотреть онлайн
    Cкачать фильм Стэн против сил зла бесплатно
    Стэн против сил зла скачать торрент в хорошем качестве
    Стэн против сил зла смотреть онлайн бесплатно в хорошем качестве


    Вы не можете начинать темы
    Вы не можете отвечать на сообщения
    Вы не можете редактировать свои сообщения
    Вы не можете удалять свои сообщения
    Вы не можете голосовать в опросах
    Вы не можете прикреплять файлы к сообщениям
    Вы можете скачивать файлы