Ссылка на приватное зеркало нашего сайта всего за 1$. Внимание количество ограничено!!!

2 сезон

iTunes

1 сезон

1

2 сезон

2 сезон

iTunes

1 сезон

RePack

30

Новинка

ВАЖНО

ИГРА 18+

pack

RePack

MK11
pack

Забери бонус

RePack

jed

!!Акция!!

Alien_Rage

RePack

fifa19

RePack

Assassins Creed: Odyssey

RePack

NEED FOR SPEED™ PAYBACK

4 сезон

9 сезон

Бесстыжие 9 сезон

Все сериалы

все сериалы на PB.wtf

RePack

FAR CRY 5
  

Вне времени / Timeless / Сезон: 2 / Серии 1-10 из 10 (Чарльз Бисон / Charles Beeson, Нил Маршалл / Neil Marshall, Джон Терлески / John Terlesky) [2018, США, фантастика, боевик, драма, WEB-DLRip] MVO [Lostfilm] pb.wtf

Вне времени через торрент pb.wtf

Размер: 3.91 GB | Добавлен: 2 года 6 мес. назад | Торрент скачан:17 раз
Скачать  

14-03-2018 00:05 Вне времени Скачать торрент  

Вне времени / Timeless
«Защитить прошлое. Сохранить будущее»


  • Год выпуска: 2016

  • Страна: США
  • Жанр: фантастика, боевик, драма, приключения
  • Продолжительность: ~ 00:44:00 (Серия)
  • Перевод: Профессиональный многоголосый
  • Режиссер: Чарльз Бисон / Charles Beeson, Нил Маршалл / Neil Marshall, Джон Терлески / John Terlesky
  • В ролях:

    Чад Рук (Karl), Эбигейл Спенсер (Lucy Preston), Мэтт Лантер (Wyatt Logan), Горан Вишнич (Garcia Flynn), Малкольм Баррет (Rufus Carlin), Пэтерсон Джозеф (Connor Mason), Сакина Джэффри (Agent Denise Christopher), Клаудия Дурмит (Jiya), Мэтт Фрюэр (Anthony Bruhl), Гектор Хьюго (Agent Ramsey), Роуэн Лонгуорт (Walter Doehner), Эйден Лонгуорт (Werner Doehner)


  • Сюжет начинается с похищения машины времени загадочным преступником, намеревающимся изменить прошлое и уничтожить Америку такой, какой мы её знаем. Наша единственная надежда - команда, состоящая из ученого, солдата и профессора истории, которым с помощью прототипа машины предстоит быть на шаг впереди опасного беглеца и не допустить изменения важных исторических событий.
  • Рейтинг:

    rating
  • Качество: WEB-DLRip
  • Формат: :AVI
  • Видео кодек: XviD
  • Аудио кодек: MP3
  • Видео: 1147 Кбит/сек, 720*400 (16:9), в 23,976 (24000/1001) кадра/сек, MPEG-4 Visual (XviD)
  • Аудио №1: русский 192 Кбит/сек, 48,0 КГц, 2 канала, MPEG Audio (MP3) |[Lostfilm]|
  • Релиз от: GEKADOL

    Внимание! Раздача ведётся путём добавления новых серий; при каждом добавлении создаётся новый торрент. Чтобы начать докачку новой серии, пользователям необходимо сделать следующее:
    (1) остановить скачивание,
    (2) удалить старый торрент у себя из клиента (старые серии удалять не надо),
    (3) скачать новый торрент и запустить его у себя в клиенте вместо старого, при этом указать клиенту путь в старую папку куда и должно происходить скачивание новых серий.
    Ваш клиент при этом должен произвести хеширование (проверку) старой папки (если не производит сам - помогите ему сделать это), и будет докачивать только те серии которых у вас ещё нет. Старые серии при этом не удаляются, а продолжают раздаваться!
    Eсли вы уже удалили старые серии, то предотвратить повторную закачку старых серий можно, отжав галочку в соответствующих местах при запуске нового торрента. По возможности, желательно не удалять старые серии как можно дольше чтобы релизёр не столько продолжал раздавать старые серии, а смог сконцентрироваться на новых.
    Общее
    Полное имя : F:\Вне времени (Timeless 2)\Timeless.S02E01.rus.LostFilm.TV.avi
    Формат : AVI
    Формат/Информация : Audio Video Interleave
    Размер файла : 411 Мбайт
    Продолжительность : 42 м. 38 с.
    Режим общего битрейта : Переменный
    Общий поток : 1347 Кбит/сек
    Программа кодирования : Nandub v1.0rc2
    Библиотека кодирования : Nandub build 1853/release

    Видео
    Идентификатор : 0
    Формат : MPEG-4 Visual
    Профиль формата : Advanced Simple@L5
    Параметр BVOP формата : Нет
    Параметр QPel формата : Нет
    Параметр GMC формата : Без точки перехода
    Параметр матрицы формата : Default (MPEG)
    Идентификатор кодека : XVID
    Идентификатор кодека/Подсказка : XviD
    Продолжительность : 42 м. 38 с.
    Битрейт : 1147 Кбит/сек
    Ширина : 720 пикселей
    Высота : 400 пикселей
    Соотношение сторон : 16:9
    Частота кадров : 23,976 (24000/1001) кадра/сек
    Частота кадров в оригинале : 23,976 (23976/1000) кадра/сек
    Цветовое пространство : YUV
    Субдискретизация насыщенности : 4:2:0
    Битовая глубина : 8 бит
    Тип развёртки : Прогрессивная
    Метод сжатия : С потерями
    Бит/(Пиксели*Кадры) : 0.166
    Размер потока : 350 Мбайт (85%)
    Библиотека кодирования : XviD 1.2.1 (UTC 2008-12-04)

    Аудио
    Идентификатор : 1
    Формат : MPEG Audio
    Версия формата : Version 1
    Профиль формата : Layer 3
    Настройки формата : Joint stereo
    Идентификатор кодека : 55
    Идентификатор кодека/Подсказка : MP3
    Продолжительность : 42 м. 38 с.
    Вид битрейта : Переменный
    Битрейт : 192 Кбит/сек
    Каналы : 2 канала
    Частота : 48,0 КГц
    Частота кадров : 41,667 кадра/сек (1152 SPF)
    Метод сжатия : С потерями
    Размер потока : 57,1 Мбайт (14%)
    Выравнивание : Соединение по промежуткам
    Продолжительность промежутка : 24 мс. (0,58 видеокадр)
    Время предзагрузки промежутка : 483 мс.
    Библиотека кодирования : LAME3.97b
    Настройки программы : -m j -V 4 -q 3 -lowpass 18.6 --abr 192



    Скриншоты:
    скриншот   скриншот   скриншот   скриншот   скриншот   скриншот   скриншот  
    скриншот  

    Раздача ведётся путём добавления новых серий. Добавлена 10 серия (18.05.2018).Просьба перекачать торрент файл.

    pb.wtf



  • Скачать Вне времени через торрент http://pic1.kartinco.top/images/11/ufqeu.jpg Скачать фильм Вне времени через торрент бесплантно в хорошем качестве qw.png Сюжет начинается с похищения машины времени загадочным преступником, намеревающимся изменить прошлое и уничтожить Америку такой, ... 8.8 10 5
    Info! Золотая раздача, скачанное не засчитывается.
    Торрент: Зарегистрирован [2018-05-17 22:54] · скачан: 17 раз
    Статус: √ проверено
    Размер: 3.91 GB
    Как cкачать? Как скачать Вне времени через торрент | qTorrent

    % Раздел Тема Автор DL S | L
    Зарубежные сериалы [ 30.84 GB ] Вне времени / Timeless / Сезон: 2 / Серии: 1-12 из 12 [2018 WEB-DL 1080p] MVO [LostFilm] bober100 Скачать
    1 | 0
    Зарубежные сериалы [ 14.58 GB ] Вне времени / Timeless / Сезон: 2 / Серии: 1-10 из 10 [2018 WEB-DL 720p] MVO [NewStudio] bober100 Скачать
    1 | 0
    Зарубежные сериалы [ 28.99 GB ] Вне времени / Timeless / Сезон: 2 / Серии: 1-12 из 12 [2018 WEB-DL 1080p] MVO [Jaskier] bober100 Скачать
    1 | 0
    Зарубежные сериалы [ 5.42 GB ] Вне времени / Timeless / Сезон: 2 / Серии: 1-10 из 10 [2018 WEB-DLRip] MVO [NewStudio] bober100 Скачать
    1 | 0


    Последний раз редактировалось: GEKADOL (2018-05-17 22:53), всего редактировалось 9 раз(а)

    28-11-2019 20:33  

    Отключить всю рекламу на сайте

    21-03-2018 20:05 Вне времени Скачать торрент  

    неплохо бы качество получше....pb.wtf



      Дорогой пользователь! Огромная просьба, поблагодарите релизера, оцените раздачу и оставьте свои комментарий, если Вы скачали Вне времени через торрент бесплатно! Внесите свою лепту в развитие PiratBit!
      Комментировать посты могут только пользователи прошедшие не сложную регистрацию
      Показать сообщения:    

      Вне времени через торрент
      Скачать бесплатно Вне времени
      Вне времени скачать торрент
      Вне времени смотреть онлайн
      Cкачать фильм Вне времени бесплатно
      Вне времени скачать торрент в хорошем качестве
      Вне времени смотреть онлайн бесплатно в хорошем качестве


      Вы не можете начинать темы
      Вы не можете отвечать на сообщения
      Вы не можете редактировать свои сообщения
      Вы не можете удалять свои сообщения
      Вы не можете голосовать в опросах
      Вы не можете прикреплять файлы к сообщениям
      Вы можете скачивать файлы