Ссылка на приватное зеркало нашего сайта всего за 1$. Внимание количество ограничено!!!

2 сезон

iTunes

1 сезон

1

2 сезон

2 сезон

iTunes

1 сезон

RePack

30

Ultimate

ВАЖНО

ИГРА 18+

pack

RePack

MK11
pack

Забери бонус

RePack

jed

!!Акция!!

Alien_Rage

RePack

fifa19

RePack

Assassins Creed: Odyssey

RePack

NEED FOR SPEED™ PAYBACK

4 сезон

9 сезон

Бесстыжие 9 сезон

Все сериалы

все сериалы на PB.wtf

RePack

FAR CRY 5
  

Обман / Хитрость / Deception / Сезон: 1 / Серии 1-13 из 13 (Дэвид Наттер, Роб Шейденгланц, Сильвер Три) [2018, США, драма, WEBRip] MVO [BaibaKo] pb.wtf

Обман через торрент pb.wtf

Размер: 6.54 GB | Добавлен: 2 года 6 мес. назад | Торрент скачан:63 раза
Скачать  

14-03-2018 00:57 Обман Скачать торрент  

Обман / Хитрость / Deception


  • Год выпуска: 2018
  • Страна: США
  • Жанр: драма
  • Продолжительность: ~ 00:44:00 (Серия)
  • Перевод: Профессиональный многоголосый [BaibaKo]
  • Режиссер: Дэвид Наттер, Роб Шейденгланц, Сильвер Три
  • В ролях:
    Лайла Робинс, Роберт Рид Мерфи, Рубен Наварро, Амори Ноласко, Ильфенеш Хадера, Джастин Чон, Ленора Кричлоу, Джо Кэрролл, Дэнни Корбо, Сонни Корбо и др.



  • После скандального завершения карьеры известный иллюзионист Кэмерон Блэк начинает помогать ФБР раскрывать необычные преступления, используя свои знания и умения.
  • Рейтинг:

    rating
  • Качество: WEBRip
  • Формат: :AVI
  • Видео кодек: XviD
  • Аудио кодек: MP3
  • Видео: 1466 Кбит/сек, 720*400 (16:9), в 23,976 (24000/1001) кадра/сек, MPEG-4 Visual (XviD)
  • Аудио №1: русский 192 Кбит/сек, 48,0 КГц, 2 канала, MPEG Audio (MP3) |[BaibaKo]|
  • Релиз от: GEKADOL

    Внимание! Раздача ведётся путём добавления новых серий; при каждом добавлении создаётся новый торрент. Чтобы начать докачку новой серии, пользователям необходимо сделать следующее:
    (1) остановить скачивание,
    (2) удалить старый торрент у себя из клиента (старые серии удалять не надо),
    (3) скачать новый торрент и запустить его у себя в клиенте вместо старого, при этом указать клиенту путь в старую папку куда и должно происходить скачивание новых серий.
    Ваш клиент при этом должен произвести хеширование (проверку) старой папки (если не производит сам - помогите ему сделать это), и будет докачивать только те серии которых у вас ещё нет. Старые серии при этом не удаляются, а продолжают раздаваться!
    Eсли вы уже удалили старые серии, то предотвратить повторную закачку старых серий можно, отжав галочку в соответствующих местах при запуске нового торрента. По возможности, желательно не удалять старые серии как можно дольше чтобы релизёр не столько продолжал раздавать старые серии, а смог сконцентрироваться на новых.
    Общее
    Полное имя : F:\Обман (Deception)\Deception.s01e01.WEBRip.XviD.Rus.BaibaKo.avi
    Формат : AVI
    Формат/Информация : Audio Video Interleave
    Размер файла : 507 Мбайт
    Продолжительность : 42 м. 28 с.
    Общий поток : 1667 Кбит/сек

    Видео
    Идентификатор : 0
    Формат : MPEG-4 Visual
    Профиль формата : Advanced Simple@L5
    Настройки формата : BVOP2
    Параметр BVOP формата : 2
    Параметр QPel формата : Нет
    Параметр GMC формата : Без точки перехода
    Параметр матрицы формата : Default (H.263)
    Идентификатор кодека : XVID
    Идентификатор кодека/Подсказка : XviD
    Продолжительность : 42 м. 28 с.
    Битрейт : 1466 Кбит/сек
    Ширина : 720 пикселей
    Высота : 400 пикселей
    Соотношение сторон : 16:9
    Частота кадров : 23,976 (24000/1001) кадра/сек
    Цветовое пространство : YUV
    Субдискретизация насыщенности : 4:2:0
    Битовая глубина : 8 бит
    Тип развёртки : Прогрессивная
    Метод сжатия : С потерями
    Бит/(Пиксели*Кадры) : 0.212
    Размер потока : 445 Мбайт (88%)
    Библиотека кодирования : XviD 67

    Аудио
    Идентификатор : 1
    Формат : MPEG Audio
    Версия формата : Version 1
    Профиль формата : Layer 3
    Настройки формата : Joint stereo
    Идентификатор кодека : 55
    Идентификатор кодека/Подсказка : MP3
    Продолжительность : 42 м. 28 с.
    Вид битрейта : Постоянный
    Битрейт : 192 Кбит/сек
    Каналы : 2 канала
    Частота : 48,0 КГц
    Метод сжатия : С потерями
    Задержка видео : 17 мс.
    Размер потока : 58,3 Мбайт (12%)
    Выравнивание : Разделение по промежуткам
    Продолжительность промежутка : 42 мс. (1,00 видеокадр)
    Время предзагрузки промежутка : 500 мс.
    Библиотека кодирования : LAMEЄЄЄ‡VYэj™IјKB­ZE



    Скриншоты:
    скриншот   скриншот   скриншот   скриншот   скриншот   скриншот   скриншот  
    скриншот  

    Раздача ведётся путём добавления новых серий. Добавлена 12,13 серия (29.05.2018).Просьба перекачать торрент файл.

    pb.wtf



  • Скачать Обман через торрент http://pic1.kartinco.top/images/11/nwixf.jpg Скачать фильм Обман через торрент бесплантно в хорошем качестве qw.png После скандального завершения карьеры известный иллюзионист Кэмерон Блэк начинает помогать ФБР раскрывать необычные преступления, ... 9.4 10 15
    Info! Золотая раздача, скачанное не засчитывается.
    Торрент: Зарегистрирован [2018-05-29 22:37] · скачан: 63 раз
    Статус: √ проверено
    Размер: 6.54 GB
    Как cкачать? Как скачать Обман через торрент | qTorrent

    % Раздел Тема Автор DL S | L
    Зарубежные сериалы [ 37.58 GB ] Хитрость / Обман / Deception / Сезон: 1 / Серии: 1-13 из 13 [2018 WEB-DL 1080p] MVO [TVShows] bober100 Скачать
    1 | 0
    Зарубежные сериалы [ 7.01 GB ] Хитрость / Обман / Deception / Сезон: 1 / Серии: 1-13 из 13 [2018 WEB-DLRip] DUB [ТВ3] bober100 Скачать
    1 | 0
    Зарубежные сериалы [ 14.13 GB ] Обман / Хитрость / Deception / Сезон: 1 / Серии: 1-13 из 13 [2018 WEB-DL 720p] MVO [Jaskier] bober100 Скачать
    1 | 0
    Зарубежные сериалы [ 6.36 GB ] Хитрость / Обман / Deception / Сезон: 1 / Серии 1-13 из 13 [2018 WEB-DLRip] [MVO] killermax2013 Скачать
    1 | 0
    Зарубежные сериалы [ 37.34 GB ] Хитрость / Обман / Deception / Сезон: 1 / Серии 1-13 из 13 [2018 WEB-DL 1080p] [MVO] killermax2013 Скачать
    1 | 0
    Зарубежные сериалы [ 23.23 GB ] Хитрость / Обман / Deception / Сезон: 1 / Серии: 1-13 из 13 [2018 WEB-DL 1080p] MVO [NewStudio] bober100 Скачать
    1 | 0
    Зарубежные сериалы [ 6.85 GB ] Хитрость / Обман / Deception / Сезон: 1 / Серии 1-13 из 13 [2018 WEBRip] [MVO] killermax2013 Скачать
    1 | 0


    Последний раз редактировалось: GEKADOL (2018-05-29 22:37), всего редактировалось 15 раз(а)

    28-11-2019 20:33  

    Отключить всю рекламу на сайте

    20-03-2018 01:55 Обман Скачать торрент  

    PROPER 1 серия исправлена одна фраза.pb.wtf



    29-05-2018 22:37 Обман Скачать торрент  

    PROPER 13 серия, исправили глюк со звуком в конце 13 эпизода.pb.wtf



      Дорогой пользователь! Огромная просьба, поблагодарите релизера, оцените раздачу и оставьте свои комментарий, если Вы скачали Обман через торрент бесплатно! Внесите свою лепту в развитие PiratBit!
      Комментировать посты могут только пользователи прошедшие не сложную регистрацию
      Показать сообщения:    

      Обман через торрент
      Скачать бесплатно Обман
      Обман скачать торрент
      Обман смотреть онлайн
      Cкачать фильм Обман бесплатно
      Обман скачать торрент в хорошем качестве
      Обман смотреть онлайн бесплатно в хорошем качестве


      Вы не можете начинать темы
      Вы не можете отвечать на сообщения
      Вы не можете редактировать свои сообщения
      Вы не можете удалять свои сообщения
      Вы не можете голосовать в опросах
      Вы не можете прикреплять файлы к сообщениям
      Вы можете скачивать файлы