>

7.4

iTunes

7.4

2 сезон

9.4

1 сезон

1

7.4

2 сезон

7.2

iTunes

6.0

MVO

13

6.1

iTunes

8.3

Пиратка

30

ULTIMATE

pack

9.9

Лицензия

ВАЖНО

ИГРА 18+

pack

7.3

RePack

MK11

7.7

RePack

jed

7.8

RePack

fifa19

8.5

RePack

RDR2

RePack

NEED FOR SPEED™ PAYBACK

1 сезон

9 сезон

Бесстыжие 9 сезон

Все сериалы

все сериалы на PB.wtf

RePack

FAR CRY 5

Anonymous, доброе утро, мы катастрофически не успеваем собрать деньги на оплату серверов, помогите нам пожалуйста 5,10,15р., для нас важна любая помощь . В качестве благодарности мы отключим Вам всю рекламу на сайте (укажите свой ник в строку Ваше имя)!

×
  
Magnet ссылка

Глаз чёрного кота / Il tuo vizio è una stanza chiusa e solo io ne ho la chiave (Серджо Мартино) [1972, триллер, BDRip 1080p by msltel] AVO pb.wtf

Глаз чёрного кота через торрент pb.wtf

Размер: 11.81 GB | Добавлен: 3 года 10 мес. назад | Торрент скачан:6 раз
Смотреть онлайн Глаз чёрного кота | Скачать    Ребята, помогите собрать деньги на оплату серверов!!!

14-03-2018 07:29 Глаз чёрного кота Скачать торрент  

Название: Глаз чёрного кота
Оригинальное название: Il tuo vizio è una stanza chiusa e solo io ne ho la chiave
Год выпуска: 1972
Страна: Италия
Жанр: триллер
Продолжительность: 01:36:43
Перевод: авторский

Режиссер: Серджо Мартино
В ролях: Эдвиж Фенек, Анита Стриндберг, Луиджи Пистилли, Иван Рассимов, Франко Неббия, Риккардо Сальвино, Энрика Бонаккорти, Даниэла Джордано, Эрмелинда Де Феличе

О фильме: Писатель Оливьеро и его жена Ирина Рувиньи - очаровательная супружеская пара, любящая устраивать вечеринки для хиппи в своём поместье и предаваться садомазохистским развлечениям. Однажды Оливьеро знакомится с девушкой в книжном магазине и назначает ей свидание в уединённом месте. Но писатель напивается и не приходит на встречу, а через некоторое время узнаёт, что девушка была убита. Тем временем, в поместье Рувиньи появляется племянница Оливьеро Флориана. Она делает попытку соблазнить дядю, а потом и Ирину. После чего пытается настроить их друг против друга с помощью своего друга Дарио. В поместье таинственным образом начинают погибать гости. Ирина начинает подозревать в совершении преступлений Оливьеро, считая, что её жизнь находится в опасности...



Качество: BDRip 1080p
Формат: MKV
Видео: MPEG-4 AVC, 16.5 Mбит/с, 1920x1036, 23.976 кадр/с
Аудио 1: русский, AC3, 192 kbps, 2 ch, 48 kHz [авторский, Александр Морозов]
Аудио 2: итальянский, DTS, 768 kbps, 1 ch, 48 kHz [оригинал]
Субтитры 1: русские (calexico)
Субтитры 2: русские (JinSem)
Субтитры 3: английские
Главы/чаптеры
Общее
Уникальный идентификатор : 219055300067011721238583570422998120380 (0xA4CC8424DE820A3395BC560276D237BC)
Полное имя : D:\Video\Глаз чёрного кота.1972.BDRip.1080p by msltel.mkv
Формат : Matroska
Версия формата : Version 4 / Version 2
Размер файла : 11,8 Гбайт
Продолжительность : 1 ч. 36 м.
Общий поток : 17,5 Мбит/сек
Название фильма : Rip by msltel
Дата кодирования : UTC 2018-03-14 04:34:58
Программа кодирования : mkvmerge v8.2.0 ('World of Adventure') 64bit
Библиотека кодирования : libebml v1.3.1 + libmatroska v1.4.2

Видео
Идентификатор : 1
Формат : AVC
Формат/Информация : Advanced Video Codec
Профиль формата : High@L4.1
Настройки формата : CABAC / 4 Ref Frames
Параметр CABAC формата : Да
Параметр RefFrames формата : 4 кадра
Идентификатор кодека : V_MPEG4/ISO/AVC
Продолжительность : 1 ч. 36 м.
Битрейт : 16,5 Мбит/сек
Ширина : 1920 пикселей
Высота : 1036 пикселей
Соотношение сторон : 1,85:1
Режим частоты кадров : Постоянный
Частота кадров : 23,976 (24000/1001) кадра/сек
Цветовое пространство : YUV
Субдискретизация насыщенности : 4:2:0
Битовая глубина : 8 бит
Тип развёртки : Прогрессивная
Бит/(Пиксели*Кадры) : 0.346
Размер потока : 11,2 Гбайт (94%)
Библиотека кодирования : x264 core 146 r2538 121396c
Настройки программы : cabac=1 / ref=4 / deblock=1:-3:-2 / analyse=0x3:0x113 / me=umh / subme=11 / psy=1 / psy_rd=1.00:0.15 / mixed_ref=1 / me_range=32 / chroma_me=1 / trellis=2 / 8x8dct=1 / cqm=0 / deadzone=21,11 / fast_pskip=0 / chroma_qp_offset=-3 / threads=6 / lookahead_threads=1 / sliced_threads=0 / nr=0 / decimate=1 / interlaced=0 / bluray_compat=0 / constrained_intra=0 / bframes=14 / b_pyramid=2 / b_adapt=2 / b_bias=0 / direct=1 / weightb=1 / open_gop=0 / weightp=2 / keyint=230 / keyint_min=23 / scenecut=40 / intra_refresh=0 / rc_lookahead=40 / rc=crf / mbtree=0 / crf=20.8 / qcomp=0.60 / qpmin=0 / qpmax=69 / qpstep=4 / vbv_maxrate=62500 / vbv_bufsize=78125 / crf_max=0.0 / nal_hrd=none / filler=0 / ip_ratio=1.40 / pb_ratio=1.30 / aq=1:1.00
Язык : Italian
Default : Да
Forced : Нет

Аудио #1
Идентификатор : 2
Формат : AC-3
Формат/Информация : Audio Coding 3
Идентификатор кодека : A_AC3
Продолжительность : 1 ч. 36 м.
Вид битрейта : Постоянный
Битрейт : 192 Кбит/сек
Каналы : 2 канала
Расположение каналов : Front: L R
Частота : 48,0 КГц
Частота кадров : 31,250 кадров/сек (1536 SPF)
Битовая глубина : 16 бит
Метод сжатия : С потерями
Размер потока : 133 Мбайт (1%)
Заголовок : Александр Морозов
Язык : Russian
ServiceKind/String : Complete Main
Default : Да
Forced : Нет

Аудио #2
Идентификатор : 3
Формат : DTS
Формат/Информация : Digital Theater Systems
Идентификатор кодека : A_DTS
Продолжительность : 1 ч. 36 м.
Вид битрейта : Постоянный
Битрейт : 768 Кбит/сек
Каналы : 1 канал
Расположение каналов : Front: C
Частота : 48,0 КГц
Частота кадров : 93,750 кадра/сек (512 SPF)
Битовая глубина : 24 бит
Метод сжатия : С потерями
Размер потока : 531 Мбайт (4%)
Заголовок : original
Язык : Italian
Default : Нет
Forced : Нет

Текст #1
Идентификатор : 4
Формат : UTF-8
Идентификатор кодека : S_TEXT/UTF8
Идентификатор кодека/Информация : UTF-8 Plain Text
Продолжительность : 1 ч. 36 м.
Битрейт : 71 бит/сек
ElementCount : 811
Размер потока : 50,2 Кбайт (0%)
Заголовок : русские calexico
Язык : Russian
Default : Нет
Forced : Нет

Текст #2
Идентификатор : 5
Формат : UTF-8
Идентификатор кодека : S_TEXT/UTF8
Идентификатор кодека/Информация : UTF-8 Plain Text
Продолжительность : 1 ч. 36 м.
Битрейт : 61 бит/сек
ElementCount : 814
Размер потока : 43,3 Кбайт (0%)
Заголовок : русские JinSem
Язык : Russian
Default : Нет
Forced : Нет

Текст #3
Идентификатор : 6
Формат : UTF-8
Идентификатор кодека : S_TEXT/UTF8
Идентификатор кодека/Информация : UTF-8 Plain Text
Продолжительность : 1 ч. 35 м.
Битрейт : 36 бит/сек
ElementCount : 783
Размер потока : 25,8 Кбайт (0%)
Заголовок : английские
Язык : English
Default : Нет
Forced : Нет

Меню
00:00:00.000 : en:00:00:00.000
00:07:52.639 : en:00:07:52.639
00:15:33.850 : en:00:15:33.850
00:22:11.372 : en:00:22:11.372
00:27:03.539 : en:00:27:03.539
00:32:46.756 : en:00:32:46.756
00:46:32.081 : en:00:46:32.081
00:56:29.595 : en:00:56:29.595
01:06:14.470 : en:01:06:14.470
01:13:26.360 : en:01:13:26.360
01:23:30.547 : en:01:23:30.547
01:29:36.579 : en:01:29:36.579
pb.wtf



Скачать Глаз чёрного кота через торрент https://a.radikal.ru/a42/1803/83/dc3be9ae5dbf.jpg Скачать, смотреть онлайн Глаз чёрного кота бесплантно в хорошем качестве О фильме: Писатель Оливьеро и его жена Ирина Рувиньи - очаровательная супружеская пара, любящая устраивать вечеринки для хиппи в своём ... 5 10 1
Info! Золотая раздача, скачанное не засчитывается.
Торрент: Зарегистрирован [2018-03-14 07:29] · скачан: 6 раз
Статус: √ проверено
Размер: 11.81 GB
Как cкачать? Как скачать Глаз чёрного кота через торрент | UTorrent

% Раздел Тема Автор DL S | L
Фильмы с авторской озвучкой [ 4.25 GB ] Глаз чёрного кота / Il tuo vizio è una stanza chiusa e solo io ne ho la chiave [1972 BDRip 720p by msltel] AVO msltel Скачать
1 | 0

28-11-2019 20:33  

Отключить всю рекламу на сайте

    Дорогой пользователь! Огромная просьба, поблагодарите релизера, оцените раздачу и оставьте свои комментарий, если Вы скачали Глаз чёрного кота через торрент бесплатно!
    Комментировать посты могут только пользователи прошедшие не сложную регистрацию
    Показать сообщения:    

    Глаз чёрного кота через торрент
    Скачать бесплатно Глаз чёрного кота
    Глаз чёрного кота скачать торрент
    Глаз чёрного кота смотреть онлайн
    Cкачать фильм Глаз чёрного кота бесплатно
    Глаз чёрного кота скачать торрент в хорошем качестве
    Глаз чёрного кота смотреть онлайн бесплатно в хорошем качестве


    Вы не можете начинать темы
    Вы не можете отвечать на сообщения
    Вы не можете редактировать свои сообщения
    Вы не можете удалять свои сообщения
    Вы не можете голосовать в опросах
    Вы не можете прикреплять файлы к сообщениям
    Вы можете скачивать файлы