Ссылка на приватное зеркало нашего сайта всего за 1$. Внимание количество ограничено!!!

2 сезон

iTunes

1 сезон

1

2 сезон

2 сезон

iTunes

1 сезон

RePack

30

Ultimate

ВАЖНО

ИГРА 18+

pack

RePack

MK11
pack

Забери бонус

RePack

jed

!!Акция!!

Alien_Rage

RePack

fifa19

RePack

Assassins Creed: Odyssey

RePack

NEED FOR SPEED™ PAYBACK

4 сезон

9 сезон

Бесстыжие 9 сезон

Все сериалы

все сериалы на PB.wtf

RePack

FAR CRY 5
  

Красная дверь / La Porta Rossa / Сезон: 1 / Серии: 1-12 из 12 (Кармине Элиа) [2017, триллер, HDTVRip 720p] DVO [SunshineStudio] pb.wtf

Красная дверь через торрент pb.wtf

Размер: 9.97 GB | Добавлен: 2 года 8 мес. назад | Торрент скачан:23 раза
Скачать  

14-03-2018 08:35 Красная дверь Скачать торрент  

Красная дверь / La Porta RossaГод выпуска: 2017
Страна: Италия
Жанр: триллер
Продолжительность: 12 х ~ 00:52:00
Перевод: Любительский (двухголосый) -
Субтитры: отсутствуют

Режиссер: Кармине Элиа

rating

В ролях:

Антонио Жерарди, Лино Гуанчале, Габриэлла Пессион, Катринель Менгия, Лоренцо Аквавива, Алессия Барела, Этторе Басси, Гаэтано Бруно, Чечилия Дацци

Описание:

Снятый по сценарию мастера нуара Карла Лукарелли режиссером Кармине Элиа захватывающий дух триллер, жанр которого колеблется между сверхъестественным и романтической драмой. Действие развивается в наши дни в Триесте, на севере Италии. Главный герой, Леонардо Калиостро, комиссар полиции, талантливый следователь, совершенно не подчиняющийся никаким правилам. Он женат на Анне, женщине решительной и очень независимой, которая работает в прокуратуре. Не доверяющий никому – ни коллегам, ни своим информаторам, Калиостро отправляется на полицейскую операцию в одиночку без прикрытия, и в результате трагически погибает от рук неизвестного убийцы. Его коллеги выглядят безутешными, но в итоге под подозрение попадают все без исключения, так как у каждого из них мог быть мотив. Леонардо Калиостро получает шанс остаться в качестве призрака, чтобы выяснить, кто из них убил его и заодно попытаться спасти свою жену, которой угрожает смертельная опасность. Только у него нет возможности войти в контакт с внешним миром, за исключением девочки-подростка, обладающей способностями медиума. Она – единственная, кто может его видеть и говорить с ним… Так начинается долгий путь поиска истины, в ходе которого вскроется немало тайн и трагических подробностей…

Качество: HDTVRip 720p
Формат: MKV

Видео: MPEG-4 AVC, ~ 2500 Кбит/с, 1280x640
Аудио: AC3, 2 ch, 192 Кбит/с
скриншот   скриншот   скриншот   скриншот   скриншот   скриншот  

Общее
Уникальный идентификатор : 173127164722491208947410080905084451414 (0x823F143E19EF33A5946DBB2348A6BA56)
Полное имя : D:\La.Porta.Rossa.S01.720p.SunshineStudio\La.Porta.Rossa.S01E01.720p.SunshineStudio.mkv
Формат : Matroska
Версия формата : Version 4 / Version 2
Размер файла : 904 Мбайт
Продолжительность : 52 м. 5 с.
Общий поток : 2427 Кбит/сек
Дата кодирования : UTC 2018-03-12 16:01:09
Программа кодирования : mkvmerge v8.3.0 ('Over the Horizon') 64bit
Библиотека кодирования : libebml v1.3.1 + libmatroska v1.4.2

Видео
Идентификатор : 1
Формат : AVC
Формат/Информация : Advanced Video Codec
Профиль формата : High@L3.1
Параметр CABAC формата : Да
Параметр RefFrames формата : 4 кадра
Идентификатор кодека : V_MPEG4/ISO/AVC
Продолжительность : 52 м. 5 с.
Битрейт : 2234 Кбит/сек
Ширина : 1280 пикселей
Высота : 640 пикселей
Соотношение сторон : 2,000
Режим частоты кадров : Постоянный
Частота кадров : 25,000 кадров/сек
Цветовое пространство : YUV
Субдискретизация насыщенности : 4:2:0
Битовая глубина : 8 бит
Тип развёртки : Прогрессивная
Бит/(Пиксели*Кадры) : 0.109
Размер потока : 832 Мбайт (92%)
Библиотека кодирования : x264 core 146 r2538 121396c
Настройки программы : cabac=1 / ref=1 / deblock=1:0:0 / analyse=0x3:0x113 / me=hex / subme=2 / psy=1 / psy_rd=1.00:0.00 / mixed_ref=0 / me_range=16 / chroma_me=1 / trellis=0 / 8x8dct=1 / cqm=0 / deadzone=21,11 / fast_pskip=1 / chroma_qp_offset=0 / threads=10 / lookahead_threads=3 / sliced_threads=0 / nr=0 / decimate=1 / interlaced=0 / bluray_compat=0 / constrained_intra=0 / bframes=3 / b_pyramid=2 / b_adapt=1 / b_bias=0 / direct=1 / weightb=1 / open_gop=0 / weightp=1 / keyint=250 / keyint_min=25 / scenecut=40 / intra_refresh=0 / rc_lookahead=10 / rc=crf / mbtree=1 / crf=18.0 / qcomp=0.60 / qpmin=0 / qpmax=69 / qpstep=4 / ip_ratio=1.40 / aq=1:1.00
Default : Да
Forced : Нет

Аудио
Идентификатор : 2
Формат : AC-3
Формат/Информация : Audio Coding 3
Расширение режима : CM (complete main)
Параметр Endianness формата : Big
Идентификатор кодека : A_AC3
Продолжительность : 52 м. 5 с.
Вид битрейта : Постоянный
Битрейт : 192 Кбит/сек
Каналы : 2 канала
Расположение каналов : Front: L R
Частота : 48,0 КГц
Частота кадров : 31,250 кадров/сек (1536 spf)
Метод сжатия : С потерями
Размер потока : 71,5 Мбайт (8%)
Default : Да
Forced : Нет

pb.wtf



Скачать Красная дверь через торрент http://img12.lostpic.net/2018/03/14/904481230f943cb2bac7fb9572526b95.jpg Скачать фильм Красная дверь через торрент бесплантно в хорошем качестве Описание: Снятый по сценарию мастера нуара Карла Лукарелли режиссером Кармине Элиа захватывающий дух триллер, жанр которого колеблется ... 10 10 4
Торрент: Зарегистрирован [2018-03-14 08:35] · скачан: 23 раз
Статус: √ проверено
Размер: 9.97 GB
Как cкачать? Как скачать Красная дверь через торрент | qTorrent

% Раздел Тема Автор DL S | L
Зарубежные сериалы [ 22.17 GB ] Красная дверь / La porta rossa / Сезон: 1 / Серии: 1-12 из 12 [2017 WEB-DL 1080p] [MVO] killermax2013 Скачать
1 | 0
Зарубежные сериалы [ 10.02 GB ] Красная дверь / La porta rossa / Сезон: 1 / Серии: 1-12 из 12 [2017 WEB-DLRip] [MVO] killermax2013 Скачать
1 | 0
Зарубежные сериалы [ 7.34 GB ] Красная дверь / La Porta Rossa / Сезон: 1 / Серии: 1-12 из 12 [2017 HDTVRip] DVO [SunshineStudio] bober100 Скачать
1 | 0

28-11-2019 20:33  

Отключить всю рекламу на сайте

    Дорогой пользователь! Огромная просьба, поблагодарите релизера, оцените раздачу и оставьте свои комментарий, если Вы скачали Красная дверь через торрент бесплатно! Внесите свою лепту в развитие PiratBit!
    Комментировать посты могут только пользователи прошедшие не сложную регистрацию
    Показать сообщения:    

    Красная дверь через торрент
    Скачать бесплатно Красная дверь
    Красная дверь скачать торрент
    Красная дверь смотреть онлайн
    Cкачать фильм Красная дверь бесплатно
    Красная дверь скачать торрент в хорошем качестве
    Красная дверь смотреть онлайн бесплатно в хорошем качестве


    Вы не можете начинать темы
    Вы не можете отвечать на сообщения
    Вы не можете редактировать свои сообщения
    Вы не можете удалять свои сообщения
    Вы не можете голосовать в опросах
    Вы не можете прикреплять файлы к сообщениям
    Вы можете скачивать файлы