новый адрес пиратбит piratbit
Мега распродажа FORZA HORIZON 4 ULTIMATE+ВСЕ DLC+ОНЛАЙН всего за 499р. 349 руб. (супер цена). Внимание количество ограничено!!!

iTunes

1+1

iTunes

мы

iTunes

1

iTunes

Чернобыль

iTunes

Ральф против интернета

Лицензия

ПШазам

Лицензия

Игра престолов

Лицензия

30
pack

ВАЖНО

!!Акция!!

Alien_RageХит недели

RePack

Resident Evil 21

ИГРА 18+

pack

RePack

Metro:Exodus

!!Акция!!

Alien_Rage

RePack

fifa19

RePack

Assassins Creed: Odyssey

RePack

NEED FOR SPEED™ PAYBACK

3 сезон

9 сезон

Бесстыжие 9 сезон

Все сериалы

все сериалы на PB.wtf

RePack

FAR CRY 5
Ребята, катастрофически не хватает 1900р. для оплаты серверов за Октябрь (всвязи с блокировками трафик упал в 3 раза), 1-2р., выручайте.
  

Такси Блюз (Лунгин) [1990 г., драма, WEB-DLRip-AVC] - ExKinoRay pb.wtf

Такси Блюз через торрент pb.wtf

Раздают: 1 [ 0 KB/s ]
Размер: 2.66 GB | Добавлен: 1 год 7 мес. назад | Торрент скачан:32 раза
Скачать  

14-03-2018 12:13 Такси Блюз Скачать торрент  

Информация о фильме
Название: Такси-блюз
Год выхода: 1990
Жанр: Драма, мелодрама, музыкальный
Страна: СССР, Франция
Продолжительность: 01:45:37
Перевод: не требуется
Режиссер: Павел Лунгин
В ролях: Пётр Мамонов, Пётр Зайченко, Владимир Кашпур, Наталья Коляканова, Хэл Сингер, Елена Сафонова, Сергей Газаров, Евгений Герчаков, Дмитрий Пригов, Игорь Золотовицкий, Валерий Хлевинский, Елена Степанова, Владимир Стержаков, Константин Афонский, Лидия Ежевская, Николай Ежевский, Сергей Галкин, Ирина Гобратова, Вячеслав Горбунчиков, Александр Иншаков, Владимир Лопатин, Наталья Маркова

Описание:
Таксист (в исполнении Петра Зайченко) становится свидетелем и участником пьяного загула музыканта и его богемной компании. Он возит их по Москве, продает им свою водку, а потом клиент скрывается, не заплатив. Бывший лидер группы “Звуки “МУ” Петр Мамонов играет у Павла Лунгина бомжа Селиверстова, необычайно талантливого музыканта саксофониста. Играет он на контрастах – от истерично-пьяного бреда и плача, его героя вдруг прорывает к рассуждениям о бессмысленности жизни и всеобщего несчастья. Таксист находит своего несостоятельного должника и здесь начинается драматическая история их взаимоотношений, где только музыка может выразить чувства, обуревающие и таксиста, и саксофониста…

rating

Файл
Формат: MKV
Качество: WEB-DLRip-AVC
Видео: MPEG-4 AVC, 1024x576 (16:9), 23.976 fps, 3412 Kbps, 0.231 bit/pixel
Аудио: 48 kHz, AC3, 2/0 ch, ~192 kbps avg
Субтитры: Французские, английские
General
Unique ID : 190034029738528827778203247802197978191 (0x8EF7390B8EAC8DA89AE7236BA02BAC4F)
Complete name : D:\Taksi.bluz.1990.AVC.ExKinoRay.mkv
Format : Matroska
Format version : Version 2
File size : 2.66 GiB
Duration : 1 h 45 min
Overall bit rate : 3 605 kb/s
Movie name : Такси блюз 1990 from ExKinoRay
Encoded date : UTC 2018-03-14 11:43:06
Writing application : mkvmerge v5.6.0 ('Kenya Kane') built on May 27 2012 16:44:04
Writing library : libebml v1.2.3 + libmatroska v1.3.0

Video
ID : 1
Format : AVC
Format/Info : Advanced Video Codec
Format profile : High@L4.1
Format settings, CABAC : Yes
Format settings, ReFrames : 12 frames
Codec ID : V_MPEG4/ISO/AVC
Duration : 1 h 45 min
Bit rate : 3 412 kb/s
Width : 1 024 pixels
Height : 576 pixels
Display aspect ratio : 16:9
Frame rate mode : Constant
Frame rate : 25.000 FPS
Color space : YUV
Chroma subsampling : 4:2:0
Bit depth : 8 bits
Scan type : Progressive
Bits/(Pixel*Frame) : 0.231
Stream size : 2.47 GiB (93%)
Title : Enigma
Writing library : x264 core 152 r2851 ba24899
Encoding settings : cabac=1 / ref=12 / deblock=1:-2:-2 / analyse=0x3:0x113 / me=umh / subme=10 / psy=1 / psy_rd=1.00:0.05 / mixed_ref=1 / me_range=32 / chroma_me=1 / trellis=2 / 8x8dct=1 / cqm=0 / deadzone=21,11 / fast_pskip=0 / chroma_qp_offset=-3 / threads=12 / lookahead_threads=3 / sliced_threads=0 / nr=0 / decimate=0 / interlaced=0 / bluray_compat=0 / constrained_intra=0 / bframes=10 / b_pyramid=2 / b_adapt=2 / b_bias=0 / direct=3 / weightb=1 / open_gop=0 / weightp=2 / keyint=240 / keyint_min=24 / scenecut=40 / intra_refresh=0 / rc_lookahead=40 / rc=2pass / mbtree=0 / bitrate=3412 / ratetol=1.0 / qcomp=0.60 / qpmin=0 / qpmax=51 / qpstep=4 / cplxblur=20.0 / qblur=0.5 / vbv_maxrate=50000 / vbv_bufsize=62500 / nal_hrd=none / filler=0 / ip_ratio=1.40 / pb_ratio=1.30 / aq=1:0.90
Language : English
Default : Yes
Forced : No
Color range : Limited
Color primaries : BT.709
Transfer characteristics : BT.709
Matrix coefficients : BT.709

Audio
ID : 2
Format : AC-3
Format/Info : Audio Coding 3
Mode extension : CM (complete main)
Format settings, Endianness : Big
Codec ID : A_AC3
Duration : 1 h 45 min
Bit rate mode : Constant
Bit rate : 192 kb/s
Channel(s) : 2 channels
Channel positions : Front: L R
Sampling rate : 48.0 kHz
Frame rate : 31.250 FPS (1536 spf)
Compression mode : Lossy
Stream size : 145 MiB (5%)
Language : Russian
Default : No
Forced : No

Text #1
ID : 3
Format : UTF-8
Codec ID : S_TEXT/UTF8
Codec ID/Info : UTF-8 Plain Text
Language : French
Default : No
Forced : No

Text #2
ID : 4
Format : UTF-8
Codec ID : S_TEXT/UTF8
Codec ID/Info : UTF-8 Plain Text
Language : English
Default : No
Forced : No
Релиз от:

Автор релиза: pb.wtf



Скачать Такси Блюз через торрент http://s012.radikal.ru/i319/1602/9b/9913718e2a41.png Скачать фильм Такси Блюз через торрент бесплантно в хорошем качестве Описание:Таксист (в исполнении Петра Зайченко) становится свидетелем и участником пьяного загула музыканта и его богемной компании. Он ... 5 10 1
Info! Золотая раздача, скачанное не засчитывается.
Торрент: Зарегистрирован [2018-03-14 12:13] · скачан: 32 раз
Статус: √ проверено
Размер: 2.66 GB
Как cкачать? Как скачать Такси Блюз через торрент | qTorrent


>> Регистрируемся здесь <<






Отзывы и комментарии о схеме читаем и пишем здесь: ---> Отзывы и комментарии о схеме

Новые благодарочки в телеграм довольных пользователей:
скриншот   скриншот   скриншот   скриншот   скриншот

14-03-2018 14:33 Такси Блюз Скачать торрент  

Первая режиссерская работа Лунгина, отличный фильм, приз за лучшую режиссуру на Каннском кинофестивале 1990 года.Если вы любите кино, очень стоит посмотреть или пересмотреть. На мой взгляд, Лунгин один из самых талантливых режиссеров, начавших снимать в последние годы перед распадом СССР. Гражданская позиция отсутствует начисто, но очень талантлив - https://ru.wikipedia.org/wiki/Лунгин,_Павел_Семёновичpb.wtf



    Дорогой пользователь! Огромная просьба, поблагодарите релизера, оцените раздачу и оставьте свои комментарий, если Вы скачали Такси Блюз через торрент бесплатно! Внесите свою лепту в развитие PiratBit!
    Комментировать посты могут только пользователи прошедшие не сложную регистрацию
    Показать сообщения:    

    Такси Блюз через торрент
    Скачать бесплатно Такси Блюз
    Такси Блюз скачать торрент
    Такси Блюз смотреть онлайн
    Cкачать фильм Такси Блюз бесплатно
    Такси Блюз скачать торрент в хорошем качестве
    Такси Блюз смотреть онлайн бесплатно в хорошем качестве


    Вы не можете начинать темы
    Вы не можете отвечать на сообщения
    Вы не можете редактировать свои сообщения
    Вы не можете удалять свои сообщения
    Вы не можете голосовать в опросах
    Вы не можете прикреплять файлы к сообщениям
    Вы можете скачивать файлы