Ссылка на приватное зеркало всего за 1$. Внимание количество ограничено!!!

OK

1+1

iTunes

мы

OK

1

WEB-DLRip

Джокер

Пифагор

Ведьмак / The Witcher сериал

iTunes

ПШазам

ОК

Оно 2

iTunes

30
pack

Вам бонус

ВАЖНО

!!Акция!!

Alien_RageХит недели

RePack

Resident Evil 21

ИГРА 18+

pack

RePack

jed

RePack

fifa19

RePack

Assassins Creed: Odyssey

RePack

NEED FOR SPEED™ PAYBACK

4 сезон

9 сезон

Бесстыжие 9 сезон

Все сериалы

все сериалы на PB.wtf

RePack

FAR CRY 5
  

Команда Мечты / #SquadGoals (Дэнни Дж. Бойл) [2018, драма, WEB-DL 720p] MVO ["Синема УС"] pb.wtf

Команда Мечты через торрент pb.wtf

Размер: 2.9 GB | Добавлен: 1 год 10 мес. назад | Торрент скачан:12 раз
Скачать  

14-03-2018 13:29 Команда Мечты Скачать торрент  

Команда Мечты / #SquadGoalsГод выпуска: 2018
Страна: США
Жанр: драма
Продолжительность: 01:27:54
Перевод: Любительский (многоголосый) ["Синема УС"]
Субтитры: отсутствуют

Режиссер: Дэнни Дж. Бойл

rating

В ролях:

Кори Фогельманис, Кеннеди Лиа Слокам, Шерил Ли, Шерри Сом, Пэрис Берелс, Мишель Пану, Пейтон Кларк

Описание:

Амбициозная старшеклассница Саманта Ходжес - серьёзная журналистка, она пишет для школьной газеты и для выпускного альбома. Она и трое её друзей попадают в списки стипендиатов. Саманта решает провести собственное расследование, после того список стипендиатов начинает редеть в ходе загадочных смертей школьников.

Качество: WEB-DL 720p
Формат: MKV
Видео кодек: H.264
Аудио кодек: AC3

Видео: 4469 Kb/s, 1280x720
Аудио#1: Русский, (AC3, 2 ch, 384 Кбит/с)
скриншот  скриншот  скриншот  

Общее
Уникальный идентификатор : 201816823440886897665871770396109186329 (0x97D481A0745B0EF6AD2E382B092E2519)
Полное имя : D:\SquadGoals.2018.P.WEB-DL.72Op_KOSHARA.mkv
Формат : Matroska
Версия формата : Version 2
Размер файла : 2,90 Гбайт
Продолжительность : 1 ч. 27 м.
Режим общего битрейта : Переменный
Общий поток : 4717 Кбит/сек
Дата кодирования : UTC 2018-03-13 16:47:34
Программа кодирования : mkvmerge v8.3.0 ('Over the Horizon') 64bit
Библиотека кодирования : libebml v1.3.1 + libmatroska v1.4.2

Видео
Идентификатор : 1
Формат : AVC
Формат/Информация : Advanced Video Codec
Профиль формата : High@L4.1
Параметр CABAC формата : Да
Параметр RefFrames формата : 4 кадра
Идентификатор кодека : V_MPEG4/ISO/AVC
Продолжительность : 1 ч. 27 м.
Вид битрейта : Переменный
Битрейт : 4469 Кбит/сек
Максимальный битрейт : 5000 Кбит/сек
Ширина : 1280 пикселей
Высота : 720 пикселей
Соотношение сторон : 16:9
Режим частоты кадров : Постоянный
Частота кадров : 23,976 (24000/1001) кадра/сек
Стандарт вещания : Component
Цветовое пространство : YUV
Субдискретизация насыщенности : 4:2:0
Битовая глубина : 8 бит
Тип развёртки : Прогрессивная
Бит/(Пиксели*Кадры) : 0.192
Размер потока : 2,60 Гбайт (90%)
Default : Да
Forced : Нет
Цветовой диапазон : Limited
Основные цвета : BT.709
Характеристики трансфера : BT.709
Коэффициенты матрицы : BT.709

Аудио
Идентификатор : 2
Формат : AC-3
Формат/Информация : Audio Coding 3
Расширение режима : CM (complete main)
Параметр Endianness формата : Big
Идентификатор кодека : A_AC3
Продолжительность : 1 ч. 27 м.
Вид битрейта : Постоянный
Битрейт : 384 Кбит/сек
Каналы : 2 канала
Расположение каналов : Front: L R
Частота : 48,0 КГц
Частота кадров : 31,250 кадров/сек (1536 spf)
Метод сжатия : С потерями
Размер потока : 241 Мбайт (8%)
Default : Да
Forced : Нет

pb.wtf



Скачать Команда Мечты через торрент http://img12.lostpic.net/2018/03/14/1045ddf0bbdb324a3ff564305c15a53b.jpg Скачать фильм Команда Мечты через торрент бесплантно в хорошем качестве Описание: Амбициозная старшеклассница Саманта Ходжес - серьёзная журналистка, она пишет для школьной газеты и для выпускного альбома. Она и ... 10 10 2
Торрент: Зарегистрирован [2018-03-14 13:29] · скачан: 12 раз
Статус: T временная
Размер: 2.9 GB
Как cкачать? Как скачать Команда Мечты через торрент | qTorrent

% Раздел Тема Автор DL S | L
T Фильмы (мультфильмы) cо спонсором показа (Новинки AVI/MKV) [ 1.36 GB ] Команда Мечты / #SquadGoals [2018 WEB-DLRip] MVO ["Синема УС"] bober100 Скачать
1 | 0

28-11-2019 20:33  

Отключить всю рекламу на сайте

    Дорогой пользователь! Огромная просьба, поблагодарите релизера, оцените раздачу и оставьте свои комментарий, если Вы скачали Команда Мечты через торрент бесплатно! Внесите свою лепту в развитие PiratBit!
    Комментировать посты могут только пользователи прошедшие не сложную регистрацию
    Показать сообщения:    

    Команда Мечты через торрент
    Скачать бесплатно Команда Мечты
    Команда Мечты скачать торрент
    Команда Мечты смотреть онлайн
    Cкачать фильм Команда Мечты бесплатно
    Команда Мечты скачать торрент в хорошем качестве
    Команда Мечты смотреть онлайн бесплатно в хорошем качестве


    Вы не можете начинать темы
    Вы не можете отвечать на сообщения
    Вы не можете редактировать свои сообщения
    Вы не можете удалять свои сообщения
    Вы не можете голосовать в опросах
    Вы не можете прикреплять файлы к сообщениям
    Вы можете скачивать файлы