Marvel's Avengers Deluxe Edition (супер цена) 159р. Внимание количество ограничено!!!

2 сезон

iTunes

iTunes

1

iTunes

iTunes

iTunes

WEBRip

iTunes

30
pack

Новость дня

ВАЖНО

!!Акция!!

Alien_RageХит недели

RePack

Horizon Zero Dawn

ИГРА 18+

pack

RePack

jed

!!Акция!!

Alien_Rage

RePack

fifa19

RePack

Assassins Creed: Odyssey

RePack

NEED FOR SPEED™ PAYBACK

4 сезон

9 сезон

Бесстыжие 9 сезон

Все сериалы

все сериалы на PB.wtf

RePack

FAR CRY 5
  

Расхитительница гробниц / Tomb Invader (Джеймс Томас) [2018, боевик, WEB-DL 720p] MVO [@MUZOBOZ@] pb.wtf

Расхитительница гробниц через торрент pb.wtf

Размер: 2.88 GB | Добавлен: 2 года 6 мес. назад | Торрент скачан:146 раз
Скачать  

14-03-2018 15:15 Расхитительница гробниц Скачать торрент  

Расхитительница гробниц / Tomb InvaderГод выпуска: 2018
Страна: США
Жанр: боевик
Продолжительность: 01:25:04
Перевод: Любительский (многоголосый) [@MUZOBOZ@]
Субтитры: отсутствуют

Режиссер: Джеймс Томас

rating

В ролях:

Джина Витори, Саманта Боулинг, Эндрю Джей Катерс, Ивэн Слоун Вайнштейн, Шон Макконнелл, Тэмми Клейн, Кейт Уотсон

Описание:

Однажды группа студентов находит подсказки, благодаря которым оказывается у древней гробницы в самой гуще джунглей. Однако реликвии прошлого не только приводят юных искателей приключений к их заветной цели, но и к разгадке об исчезнувшем члене семьи.

Качество: WEB-DL 720p
Формат: MKV
Видео кодек: H.264
Аудио кодек: AC3

Видео: 4454 Kb/s, 1280x720
Аудио#1: Русский, (AC3, 2 ch, 384 Кбит/с)
скриншот  скриншот  скриншот  

Общее
Уникальный идентификатор : 237571912952140414230468678230671521533 (0xB2BAAFA4E77A13C293D917D953BA76FD)
Полное имя : D:\Tomb.Invader.2018.P.WEB-DL.72Op.mkv
Формат : Matroska
Версия формата : Version 2
Размер файла : 2,88 Гбайт
Продолжительность : 1 ч. 25 м.
Режим общего битрейта : Переменный
Общий поток : 4840 Кбит/сек
Дата кодирования : UTC 2018-03-14 03:11:21
Программа кодирования : mkvmerge v8.3.0 ('Over the Horizon') 64bit
Библиотека кодирования : libebml v1.3.1 + libmatroska v1.4.2

Видео
Идентификатор : 1
Формат : AVC
Формат/Информация : Advanced Video Codec
Профиль формата : High@L4.1
Параметр CABAC формата : Да
Параметр RefFrames формата : 4 кадра
Идентификатор кодека : V_MPEG4/ISO/AVC
Продолжительность : 1 ч. 25 м.
Вид битрейта : Переменный
Битрейт : 4454 Кбит/сек
Максимальный битрейт : 5000 Кбит/сек
Ширина : 1280 пикселей
Высота : 720 пикселей
Соотношение сторон : 16:9
Режим частоты кадров : Постоянный
Частота кадров : 23,976 (24000/1001) кадра/сек
Стандарт вещания : Component
Цветовое пространство : YUV
Субдискретизация насыщенности : 4:2:0
Битовая глубина : 8 бит
Тип развёртки : Прогрессивная
Бит/(Пиксели*Кадры) : 0.197
Размер потока : 2,59 Гбайт (90%)
Default : Да
Forced : Нет
Цветовой диапазон : Limited
Основные цвета : BT.709
Характеристики трансфера : BT.709
Коэффициенты матрицы : BT.709

Аудио
Идентификатор : 2
Формат : AC-3
Формат/Информация : Audio Coding 3
Расширение режима : CM (complete main)
Параметр Endianness формата : Big
Идентификатор кодека : A_AC3
Продолжительность : 1 ч. 25 м.
Вид битрейта : Постоянный
Битрейт : 384 Кбит/сек
Каналы : 2 канала
Расположение каналов : Front: L R
Частота : 48,0 КГц
Частота кадров : 31,250 кадров/сек (1536 spf)
Метод сжатия : С потерями
Размер потока : 234 Мбайт (8%)
Default : Да
Forced : Нет
pb.wtf



Скачать Расхитительница гробниц через торрент http://img12.lostpic.net/2018/03/14/ff2fdc4a341533dc7c2a7619d9b8b2b1.jpg Скачать фильм Расхитительница гробниц через торрент бесплантно в хорошем качестве Описание: Однажды группа студентов находит подсказки, благодаря которым оказывается у древней гробницы в самой гуще джунглей. Однако ... 6.7 10 9
Торрент: Зарегистрирован [2018-03-14 15:15] · скачан: 146 раз
Статус: T временная
Размер: 2.88 GB
Как cкачать? Как скачать Расхитительница гробниц через торрент | qTorrent

% Раздел Тема Автор DL S | L
T Фильмы (мультфильмы) cо спонсором показа (Новинки AVI/MKV) [ 1.37 GB ] Расхитительница гробниц / Tomb Invader [2018 WEB-DLRip] MVO [@MUZOBOZ@] bober100 Скачать
1 | 0


Последний раз редактировалось: bober100 (2018-03-14 19:41), всего редактировалось 2 раз(а)

28-11-2019 20:33  

Отключить всю рекламу на сайте

14-03-2018 15:28 Расхитительница гробниц Скачать торрент  

плин...а я сначала обрадовался :) Asylum рулит!pb.wtf





Последний раз редактировалось: Userman4ik (2018-03-14 16:00), всего редактировалось 1 раз

14-03-2018 15:34 Расхитительница гробниц Скачать торрент  

Tomb Invader-Захватчица гробницpb.wtf



14-03-2018 16:14 Расхитительница гробниц Скачать торрент  

Название неправильно переведено. Развод на треш.pb.wtf



14-03-2018 19:47 Расхитительница гробниц Скачать торрент  

У этой "Лары" хоть все на местеpb.wtf



    Дорогой пользователь! Огромная просьба, поблагодарите релизера, оцените раздачу и оставьте свои комментарий, если Вы скачали Расхитительница гробниц через торрент бесплатно! Внесите свою лепту в развитие PiratBit!
    Комментировать посты могут только пользователи прошедшие не сложную регистрацию
    Показать сообщения:    

    Расхитительница гробниц через торрент
    Скачать бесплатно Расхитительница гробниц
    Расхитительница гробниц скачать торрент
    Расхитительница гробниц смотреть онлайн
    Cкачать фильм Расхитительница гробниц бесплатно
    Расхитительница гробниц скачать торрент в хорошем качестве
    Расхитительница гробниц смотреть онлайн бесплатно в хорошем качестве


    Вы не можете начинать темы
    Вы не можете отвечать на сообщения
    Вы не можете редактировать свои сообщения
    Вы не можете удалять свои сообщения
    Вы не можете голосовать в опросах
    Вы не можете прикреплять файлы к сообщениям
    Вы можете скачивать файлы