Ссылка на приватное зеркало всего за 1$. Внимание количество ограничено!!!

OK

1+1

iTunes

мы

OK

1

WEB-DLRip

Джокер

Пифагор

Ведьмак / The Witcher сериал

iTunes

ПШазам

ОК

Оно 2

iTunes

30
pack

Вам бонус

ВАЖНО

!!Акция!!

Alien_RageХит недели

RePack

Resident Evil 21

ИГРА 18+

pack

RePack

jed

RePack

fifa19

RePack

Assassins Creed: Odyssey

RePack

NEED FOR SPEED™ PAYBACK

4 сезон

9 сезон

Бесстыжие 9 сезон

Все сериалы

все сериалы на PB.wtf

RePack

FAR CRY 5
  

Голубой мировой порядок / Blue World Order (Че Бэйкер, Даллас Блэнд) [2017, фантастика, WEBRip 720p] MVO ["Синема УС"] pb.wtf

Голубой мировой порядок через торрент pb.wtf

Размер: 3.1 GB | Добавлен: 1 год 10 мес. назад | Торрент скачан:84 раза
Скачать  

14-03-2018 19:33 Голубой мировой порядок Скачать торрент  

Голубой мировой порядок / Blue World OrderГод выпуска: 2017
Страна: Австралия
Жанр: фантастика
Продолжительность: 01:56:26
Перевод: Любительский (многоголосый) ["Синема УС"]
Субтитры: Арабские (хардсаб)

Режиссер: Че Бэйкер, Даллас Блэнд

rating

В ролях:

Билли Зейн, Брюс Спенс, Джек Томпсон, Джэйк Райан, Стивен Хантер, Кендра Эпплтон, Энди Треу, Барбара Хастингс, Даллас Блэнд

Описание:

В ходе третьей мировой войны в зараженную радиацией атмосферу была выпущена опасная бактерия из био-реакторных электростанций, которая быстро привела к пандемии среди выживших. Города на севере опустели, но бежавшие от бактерии на юг вскоре были подвергнуты иммунизации с помощью электро-магнитного импульса, которому сопутствовала пара незначительных сторонних эффектов. Первый - заражение мозга цифровым вирусом. Второй - гибель всех детей.

Качество: WEBRip 720p
Формат: MKV
Видео кодек: H.264
Аудио кодек: AC3

Видео: 3619 Kb/s, 1280x544
Аудио#1: Русский, (AC3, 2 ch, 192 Кбит/с)
скриншот  скриншот  скриншот  

Общее
Уникальный идентификатор : 232610929402137839280568372234503815379 (0xAEFF3C4551CD7414BC4F19BA9E8B80D3)
Полное имя : D:\Blue World Order.2O17.P.WEBRip.72Op_KOSHARA.mkv
Формат : Matroska
Версия формата : Version 2
Размер файла : 3,10 Гбайт
Продолжительность : 1 ч. 56 м.
Режим общего битрейта : Переменный
Общий поток : 3813 Кбит/сек
Дата кодирования : UTC 2018-03-14 12:26:30
Программа кодирования : mkvmerge v8.3.0 ('Over the Horizon') 64bit
Библиотека кодирования : libebml v1.3.1 + libmatroska v1.4.2

Видео
Идентификатор : 1
Формат : AVC
Формат/Информация : Advanced Video Codec
Профиль формата : High@L4.1
Параметр CABAC формата : Да
Параметр RefFrames формата : 4 кадра
Идентификатор кодека : V_MPEG4/ISO/AVC
Продолжительность : 1 ч. 56 м.
Вид битрейта : Переменный
Битрейт : 3619 Кбит/сек
Максимальный битрейт : 4000 Кбит/сек
Ширина : 1280 пикселей
Высота : 544 пикселя
Соотношение сторон : 2,35:1
Режим частоты кадров : Постоянный
Частота кадров : 23,976 (24000/1001) кадра/сек
Стандарт вещания : Component
Цветовое пространство : YUV
Субдискретизация насыщенности : 4:2:0
Битовая глубина : 8 бит
Тип развёртки : Прогрессивная
Бит/(Пиксели*Кадры) : 0.212
Размер потока : 2,88 Гбайт (93%)
Default : Да
Forced : Нет
Цветовой диапазон : Limited
Основные цвета : BT.709
Характеристики трансфера : BT.709
Коэффициенты матрицы : BT.709

Аудио
Идентификатор : 2
Формат : AC-3
Формат/Информация : Audio Coding 3
Расширение режима : CM (complete main)
Параметр Endianness формата : Big
Идентификатор кодека : A_AC3
Продолжительность : 1 ч. 56 м.
Вид битрейта : Постоянный
Битрейт : 192 Кбит/сек
Каналы : 2 канала
Расположение каналов : Front: L R
Частота : 48,0 КГц
Частота кадров : 31,250 кадров/сек (1536 spf)
Метод сжатия : С потерями
Размер потока : 160 Мбайт (5%)
Default : Да
Forced : Нет

pb.wtf



Скачать Голубой мировой порядок через торрент http://img12.lostpic.net/2018/03/14/c8e9c6ac69d55aa245386602e793f6b6.jpg Скачать фильм Голубой мировой порядок через торрент бесплантно в хорошем качестве Описание: В ходе третьей мировой войны в зараженную радиацией атмосферу была выпущена опасная бактерия из био-реакторных электростанций, ... 10 10 3
Торрент: Зарегистрирован [2018-03-14 19:33] · скачан: 84 раз
Статус: T временная
Размер: 3.1 GB
Как cкачать? Как скачать Голубой мировой порядок через торрент | qTorrent

% Раздел Тема Автор DL S | L
T Фильмы (мультфильмы) cо спонсором показа (Новинки AVI/MKV) [ 1.46 GB ] Голубой мировой порядок / Blue World Order [2017 WEBRip] MVO ["Синема УС"] bober100 Скачать
2 | 0

28-11-2019 20:33  

Отключить всю рекламу на сайте

    Дорогой пользователь! Огромная просьба, поблагодарите релизера, оцените раздачу и оставьте свои комментарий, если Вы скачали Голубой мировой порядок через торрент бесплатно! Внесите свою лепту в развитие PiratBit!
    Комментировать посты могут только пользователи прошедшие не сложную регистрацию
    Показать сообщения:    

    Голубой мировой порядок через торрент
    Скачать бесплатно Голубой мировой порядок
    Голубой мировой порядок скачать торрент
    Голубой мировой порядок смотреть онлайн
    Cкачать фильм Голубой мировой порядок бесплатно
    Голубой мировой порядок скачать торрент в хорошем качестве
    Голубой мировой порядок смотреть онлайн бесплатно в хорошем качестве


    Вы не можете начинать темы
    Вы не можете отвечать на сообщения
    Вы не можете редактировать свои сообщения
    Вы не можете удалять свои сообщения
    Вы не можете голосовать в опросах
    Вы не можете прикреплять файлы к сообщениям
    Вы можете скачивать файлы