новый адрес
Ссылка на приватное зеркало всего за 1$. Внимание количество ограничено!!!

iTunes

1+1

iTunes

мы

WEB-DL

1

iTunes

Чернобыль

iTunes

Ральф против интернета

Лицензия

ПШазам

Лицензия

Оно 2

Лицензия

30
pack

Вам бонус

ВАЖНО

!!Акция!!

Alien_RageХит недели

RePack

Resident Evil 21

ИГРА 18+

pack

RePack

jed

!!Акция!!

Alien_Rage

RePack

fifa19

RePack

Assassins Creed: Odyssey

RePack

NEED FOR SPEED™ PAYBACK

3 сезон

9 сезон

Бесстыжие 9 сезон

Все сериалы

все сериалы на PB.wtf

RePack

FAR CRY 5
Ребята, катастрофически не хватает 1900р. для оплаты серверов за Октябрь (всвязи с блокировками трафик упал в 3 раза), 1-2р., выручайте.
  

Дом на продажу / The Open House (Мэтт Энджел, Сьюзен Кут) [2018, ужасы, триллер, WEBRip] MVO [Jaskier] pb.wtf

Дом на продажу через торрент pb.wtf

Размер: 1.37 GB | Добавлен: 1 год 8 мес. назад | Торрент скачан:567 раз
Скачать  

14-03-2018 23:11 Дом на продажу Скачать торрент  

Дом на продажу / The Open HouseГод выпуска: 2018
Страна: США
Жанр: ужасы, триллер
Продолжительность: 01:34:58
Перевод: Профессиональный (многоголосый) - [Jaskier]
Субтитры: Нет

Режиссер: Мэтт Энджел, Сьюзен Кут

rating

В ролях:


Дилан Миннетт (Logan Wallace), Piercey Dalton (Naomi Wallace), Шариф Аткинс (Chris), Патрисия Бетун (Martha), Мэтт Энджел (Cop #1), Suzanne Coote (Waitress), Аарон Абрамс (Brian Wallace), Kathryn Beckwith (Joannie McAllister), Этан Кашинг (Tommy), Эдвард Олсон (The Man in Black), Ли Паркер (Ed), Пол Рэй (Plumber)

Описание:

После смерти мужа Наоми с сыном-подростком Логаном остаются без средств к существованию, и сестра женщины предлагает им пожить в своем огромном особняке посреди леса. Дом выставлен на продажу, поэтому новые жильцы должны периодически оставлять ключи и дом риэлторам на целый день. Скорбя о потере, мать с сыном стараются не обращать внимание на некоторые странности жилища, что вскоре может выйти им боком.

Без рекламы.

Качество: WEBRip
Формат: AVI

Видео: XviD, 1669 Кбит/с, 720x304
Аудио#1: AC3, 6 ch, 384 Кбит/с
скриншот   скриншот   скриншот   скриншот  

Общее
Полное имя : D:ЯскъерThe.Open.House.2018.WEBRip.Jaskier.avi
Формат : AVI
Формат/Информация : Audio Video Interleave
Размер файла : 1,37 Гбайт
Продолжительность : 1 ч. 34 м.
Общий поток : 2062 Кбит/сек
Программа кодирования : VirtualDubMod 1.5.10.3 | www.virtualdub-fr.org || (build 2550/release)
Библиотека кодирования : VirtualDubMod build 2550/release

Видео
Идентификатор : 0
Формат : MPEG-4 Visual
Профиль формата : Advanced Simple@L5
Настройки формата : BVOP1 / Custom Matrix
Параметр BVOP формата : 1
Параметр QPel формата : Нет
Параметр GMC формата : Без точки перехода
Параметр матрицы формата : Выборочная
Идентификатор кодека : XVID
Идентификатор кодека/Подсказка : XviD
Продолжительность : 1 ч. 34 м.
Битрейт : 1669 Кбит/сек
Ширина : 720 пикселей
Высота : 304 пикселя
Соотношение сторон : 2,35:1
Частота кадров : 23,976 (24000/1001) кадра/сек
Цветовое пространство : YUV
Субдискретизация насыщенности : 4:2:0
Битовая глубина : 8 бит
Тип развёртки : Прогрессивная
Метод сжатия : С потерями
Бит/(Пиксели*Кадры) : 0.318
Размер потока : 1,11 Гбайт (81%)
Библиотека кодирования : XviD 73

Аудио
Идентификатор : 1
Формат : AC-3
Формат/Информация : Audio Coding 3
Идентификатор кодека : 2000
Продолжительность : 1 ч. 34 м.
Вид битрейта : Постоянный
Битрейт : 384 Кбит/сек
Каналы : 6 каналов
Расположение каналов : Front: L C R, Side: L R, LFE
Частота : 48,0 КГц
Частота кадров : 31,250 кадров/сек (1536 SPF)
Битовая глубина : 16 бит
Метод сжатия : С потерями
Размер потока : 261 Мбайт (19%)
Выравнивание : Разделение по промежуткам
Продолжительность промежутка : 42 мс. (1,00 видеокадр)
Время предзагрузки промежутка : 500 мс.

pb.wtf



Скачать Дом на продажу через торрент http://i103.fastpic.ru/big/2018/0315/0a/3410aecce6b0cbb1bc4529845c63e10a.jpg Скачать фильм Дом на продажу через торрент бесплантно в хорошем качестве Описание: После смерти мужа Наоми с сыном-подростком Логаном остаются без средств к существованию, и сестра женщины предлагает им пожить в ... 10 10 13
Торрент: Зарегистрирован [2018-03-14 23:11] · скачан: 567 раз
Статус: √ проверено
Размер: 1.37 GB
Как cкачать? Как скачать Дом на продажу через торрент | qTorrent

% Раздел Тема Автор DL S | L
Фильмы (WEB-DL 720p, 1080p) [ 2.89 GB ] Дом на продажу / The Open House [2018 WEBRip 1080p] MVO [Jaskier] bober100 Скачать
1 | 0
R.G. Resident & PiratVoice - Фильмы, Видео [ 1.45 GB ] Дом на продажу / The Open House [2018 WEBRip ] MVO [NewStudio] -Lexx- Скачать
1 | 0
T Фильмы (WEB-DL 720p, 1080p) [ 1.85 GB ] Дом на продажу / The Open House [2018 WEBRip 720p] [MVO] WorldSM Скачать
1 | 0

28-11-2019 20:33  

Отключить всю рекламу на сайте

16-03-2018 06:26 Дом на продажу Скачать торрент  

В целом неплохой фильм. 3 из 5pb.wtf



06-04-2018 17:04 Дом на продажу Скачать торрент  

Самое настоящее хххавно... ни начала , ни конца.... бессмыслица полная....pb.wtf



13-04-2018 18:18 Дом на продажу Скачать торрент  

Действительно фильм не о чём. Кто убийца? Зачем убивает? Короче бредятина!!!pb.wtf



    Дорогой пользователь! Огромная просьба, поблагодарите релизера, оцените раздачу и оставьте свои комментарий, если Вы скачали Дом на продажу через торрент бесплатно! Внесите свою лепту в развитие PiratBit!
    Комментировать посты могут только пользователи прошедшие не сложную регистрацию
    Показать сообщения:    

    Дом на продажу через торрент
    Скачать бесплатно Дом на продажу
    Дом на продажу скачать торрент
    Дом на продажу смотреть онлайн
    Cкачать фильм Дом на продажу бесплатно
    Дом на продажу скачать торрент в хорошем качестве
    Дом на продажу смотреть онлайн бесплатно в хорошем качестве


    Вы не можете начинать темы
    Вы не можете отвечать на сообщения
    Вы не можете редактировать свои сообщения
    Вы не можете удалять свои сообщения
    Вы не можете голосовать в опросах
    Вы не можете прикреплять файлы к сообщениям
    Вы можете скачивать файлы