Ссылка на приватное зеркало всего за 1$. Внимание количество ограничено!!!

OK

1+1

iTunes

мы

OK

1

WEB-DLRip

Джокер

Пифагор

Ведьмак / The Witcher сериал

iTunes

ПШазам

ОК

Оно 2

iTunes

30
pack

Вам бонус

ВАЖНО

!!Акция!!

Alien_RageХит недели

RePack

Resident Evil 21

ИГРА 18+

pack

RePack

jed

RePack

fifa19

RePack

Assassins Creed: Odyssey

RePack

NEED FOR SPEED™ PAYBACK

4 сезон

9 сезон

Бесстыжие 9 сезон

Все сериалы

все сериалы на PB.wtf

RePack

FAR CRY 5
  

Тихие воды / Stillwater (Нино Альди) [2018 г., Триллер, детектив, WEB-DL 720p, Любительский (многоголосый)(Синема УС)] pb.wtf

Тихие воды через торрент pb.wtf

Размер: 3.13 GB | Добавлен: 1 год 10 мес. назад | Торрент скачан:280 раз
Скачать  

15-03-2018 12:45 Тихие воды Скачать торрент  

Тихие воды / Stillwater
Год выпуска: 2018
Страна: США / Flixseed Productions
Жанр: Триллер, детектив
Продолжительность: 01:32:00
Перевод: Любительский (многоголосый)(Синема УС)
Субтитры: Отсутствуют

Режиссер: Нино Альди

rating

В ролях: Карлена Бритч, Тайлер Риттер, Эрик Майкл Рой, Пол Элиа, Энтони Дженсен, Трэвис Квентин Янг, Майк Фой, Нино Альди

Описание: Шестеро школьных друзей решают встретиться старой компанией и провести выходные у озера, но встреча принимает неожиданный оборот, когда одного из друзей находят на утро мертвым. Все пытаются выяснить, кто и зачем это мог сделать, но одно ясно точно: убийца среди них.

Доп. информация: Присутствуют вставки текстовой рекламы

Качество: WEB-DL 720p
Формат: MKV
Видео кодек: H.264
Аудио кодек: AC3

Видео: 1280x536, 4390 Kbps
Аудио#1: AC-3, 48.0 KHz, 2 ch, 384 Kbps
скриншот   скриншот   скриншот   скриншот  

Полное имя : E:\NNM\Тихие воды\Stillwater 2018 WEB-DLRip 720p-LQ.mkv
Формат : Matroska
Версия формата : Version 2
Размер файла : 3,13 Гбайт
Продолжительность : 1 ч. 32 м.
Режим общего битрейта : Переменный
Общий поток : 4871 Кбит/сек
Программа кодирования : libmatroska 1.4.1

Видео
Идентификатор : 1
Формат : AVC
Формат/Информация : Advanced Video Codec
Профиль формата : High@L4.1
Настройки формата : CABAC / 4 Ref Frames
Параметр CABAC формата : Да
Параметр RefFrames формата : 4 кадра
Идентификатор кодека : V_MPEG4/ISO/AVC
Продолжительность : 1 ч. 32 м.
Вид битрейта : Переменный
Битрейт : 4390 Кбит/сек
Максимальный битрейт : 5000 Кбит/сек
Ширина : 1280 пикселей
Высота : 536 пикселей
Соотношение сторон : 2,40:1
Режим частоты кадров : Постоянный
Частота кадров : 23,976 (24000/1001) кадра/сек
Стандарт вещания : Component
Цветовое пространство : YUV
Субдискретизация насыщенности : 4:2:0
Битовая глубина : 8 бит
Тип развёртки : Прогрессивная
Бит/(Пиксели*Кадры) : 0.267
Размер потока : 2,82 Гбайт (90%)
Default : Нет
Forced : Нет
Цветовой диапазон : Limited
Основные цвета : BT.709
Характеристики трансфера : BT.709
Коэффициенты матрицы : BT.709

Аудио
Идентификатор : 2
Формат : AC-3
Формат/Информация : Audio Coding 3
Идентификатор кодека : A_AC3
Продолжительность : 1 ч. 32 м.
Вид битрейта : Постоянный
Битрейт : 384 Кбит/сек
Каналы : 2 канала
Расположение каналов : Front: L R
Частота : 48,0 КГц
Частота кадров : 31,250 кадров/сек (1536 SPF)
Битовая глубина : 16 бит
Метод сжатия : С потерями
Размер потока : 253 Мбайт (8%)
ServiceKind/String : Complete Main
Default : Нет
Forced : Нет

pb.wtf



Скачать Тихие воды через торрент http://i101.fastpic.ru/big/2018/0315/f9/19463c029fdae783e479759e2324b3f9.jpg Скачать фильм Тихие воды через торрент бесплантно в хорошем качестве Описание: Шестеро школьных друзей решают встретиться старой компанией и провести выходные у озера, но встреча принимает неожиданный оборот, ... 7.2 10 5
Торрент: Зарегистрирован [2018-03-15 12:45] · скачан: 280 раз
Статус: T временная
Размер: 3.13 GB
Как cкачать? Как скачать Тихие воды через торрент | qTorrent

% Раздел Тема Автор DL S | L
T Фильмы (мультфильмы) cо спонсором показа (Новинки AVI/MKV) [ 3.22 GB ] Тихие воды / Тихий Омут / Stillwater [2018 WEB-DL 720p] MVO ["Синема УС"] bober100 Скачать
1 | 0
T Фильмы (мультфильмы) cо спонсором показа (Новинки AVI/MKV) [ 1.36 GB ] Тихие воды / Тихий Омут / Stillwater [2018 WEB-DLRip] MVO ["Синема УС"] bober100 Скачать
1 | 0

28-11-2019 20:33  

Отключить всю рекламу на сайте

    Дорогой пользователь! Огромная просьба, поблагодарите релизера, оцените раздачу и оставьте свои комментарий, если Вы скачали Тихие воды через торрент бесплатно! Внесите свою лепту в развитие PiratBit!
    Комментировать посты могут только пользователи прошедшие не сложную регистрацию
    Показать сообщения:    

    Тихие воды через торрент
    Скачать бесплатно Тихие воды
    Тихие воды скачать торрент
    Тихие воды смотреть онлайн
    Cкачать фильм Тихие воды бесплатно
    Тихие воды скачать торрент в хорошем качестве
    Тихие воды смотреть онлайн бесплатно в хорошем качестве


    Вы не можете начинать темы
    Вы не можете отвечать на сообщения
    Вы не можете редактировать свои сообщения
    Вы не можете удалять свои сообщения
    Вы не можете голосовать в опросах
    Вы не можете прикреплять файлы к сообщениям
    Вы можете скачивать файлы