Ссылка на приватное зеркало нашего сайта всего за 1$. Внимание количество ограничено!!!

2 сезон

iTunes

1 сезон

1

2 сезон

2 сезон

iTunes

1 сезон

RePack

30

Новинка

ВАЖНО

ИГРА 18+

pack

RePack

MK11
pack

Забери бонус

RePack

jed

!!Акция!!

Alien_Rage

RePack

fifa19

RePack

Assassins Creed: Odyssey

RePack

NEED FOR SPEED™ PAYBACK

4 сезон

9 сезон

Бесстыжие 9 сезон

Все сериалы

все сериалы на PB.wtf

RePack

FAR CRY 5
  

Джессика Джонс / Jessica Jones / Сезон: 2 / Серии: 1-13 из 13 (С.Дж. Кларксон, Дэвид Петрарка, Стивен Серджик) [2018, Фантастика, боевик, драма, криминал, WEBRip 720p] MVO [Jaskier] pb.wtf

Джессика Джонс через торрент pb.wtf

Размер: 11.75 GB | Добавлен: 2 года 8 мес. назад | Торрент скачан:17 раз
Скачать  

16-03-2018 02:05 Джессика Джонс Скачать торрент  

Джессика Джонс / Jessica JonesГод выпуска: 2018
Страна: США
Жанр: Фантастика, боевик, драма, криминал
Продолжительность: ~00:48:00
Перевод: Профессиональный многоголосый | Jaskier
Субтитры: отсутствуют

Режиссер: С.Дж. Кларксон, Дэвид Петрарка, Стивен Серджик

rating

В ролях:

Кристен Риттер, Дэвид Теннант, Майк Колтер, Рэйчел Тейлор, Кэрри-Энн Мосс, Эйка Дарвилл, Эрин Мориарти, Уил Трэвэл, Сьюзи Абромейт, Фил Каппадора

Описание:

После трагических событий, оборвавших короткую супергеройскую карьеру Джессики Джонс, девушка пытается восстановить свою личную жизнь и свою карьеру частного детектива, расследуя таинственную активность людей со сверхспособностями в Нью-Йорке.

Качество: WEBRip 720p
Формат: MKV

Видео: 1280x720 (16:9) | X264 | ~1540 kbps | 23.976 fps
Аудио#1: AC3, 48,0 КГц, 6 ch, 384 kbps - [RUS]
Аудио#2: AC3, 48,0 КГц, 6 ch, 384 kbps - [ENG]
скриншот   скриншот   скриншот  

Общее
Уникальный идентификатор : 56283639546295588221297639012075103039 (0x2A57D5AD774A98E944823BACB1DCE33F)
Полное имя : D:\Marvels Jessica Jones Season 2 (WEBRip l 720p l Jaskier)\Marvels.Jessica.Jones.S02E01.WEBRip.720p.Jaskier.mkv
Формат : Matroska
Версия формата : Version 4 / Version 2
Размер файла : 874 Мбайт
Продолжительность : 53 м. 55 с.
Режим общего битрейта : Переменный
Общий поток : 2267 Кбит/сек
Дата кодирования : UTC 2018-03-12 23:29:24
Программа кодирования : mkvmerge v19.0.0 ('Brave Captain') 64-bit
Библиотека кодирования : libebml v1.3.5 + libmatroska v1.4.8

Видео
Идентификатор : 1
Формат : AVC
Формат/Информация : Advanced Video Codec
Профиль формата : Main@L3.1
Параметр CABAC формата : Да
Параметр RefFrames формата : 3 кадра
Идентификатор кодека : V_MPEG4/ISO/AVC
Продолжительность : 53 м. 55 с.
Вид битрейта : Переменный
Битрейт : 1454 Кбит/сек
Номинальный битрейт : 1540 Кбит/сек
Максимальный битрейт : 2310 Кбит/сек
Ширина : 1280 пикселей
Высота : 720 пикселей
Соотношение сторон : 16:9
Режим частоты кадров : Постоянный
Частота кадров : 23,976 (24000/1001) кадра/сек
Цветовое пространство : YUV
Субдискретизация насыщенности : 4:2:0
Битовая глубина : 8 бит
Тип развёртки : Прогрессивная
Бит/(Пиксели*Кадры) : 0.066
Размер потока : 561 Мбайт (64%)
Библиотека кодирования : x264 core 148 r2715 7e75228
Настройки программы : cabac=1 / ref=3 / deblock=1:0:0 / analyse=0x1:0x111 / me=umh / subme=10 / psy=1 / psy_rd=1.00:0.00 / mixed_ref=1 / me_range=24 / chroma_me=1 / trellis=2 / 8x8dct=0 / cqm=0 / deadzone=21,11 / fast_pskip=1 / chroma_qp_offset=-2 / threads=8 / lookahead_threads=1 / sliced_threads=0 / nr=0 / decimate=1 / interlaced=0 / bluray_compat=0 / stitchable=1 / constrained_intra=0 / bframes=2 / b_pyramid=0 / b_adapt=2 / b_bias=0 / direct=3 / weightb=1 / open_gop=0 / weightp=2 / keyint=48 / keyint_min=25 / scenecut=0 / intra_refresh=0 / rc_lookahead=48 / rc=2pass / mbtree=1 / bitrate=1540 / ratetol=1.0 / qcomp=0.50 / qpmin=6 / qpmax=51 / qpstep=4 / cplxblur=20.0 / qblur=0.5 / vbv_maxrate=2310 / vbv_bufsize=3080 / nal_hrd=vbr / filler=0 / ip_ratio=1.40 / aq=1:1.00
Default : Да
Forced : Нет

Аудио #1
Идентификатор : 2
Формат : AC-3
Формат/Информация : Audio Coding 3
Расширение режима : CM (complete main)
Параметр Endianness формата : Big
Идентификатор кодека : A_AC3
Продолжительность : 53 м. 55 с.
Вид битрейта : Постоянный
Битрейт : 384 Кбит/сек
Каналы : 6 каналов
Расположение каналов : Front: L C R, Side: L R, LFE
Частота : 48,0 КГц
Частота кадров : 31,250 кадров/сек (1536 spf)
Метод сжатия : С потерями
Размер потока : 148 Мбайт (17%)
Заголовок : Jaskier
Язык : Russian
Default : Да
Forced : Нет

Аудио #2
Идентификатор : 3
Формат : AC-3
Формат/Информация : Audio Coding 3
Расширение режима : CM (complete main)
Параметр Endianness формата : Big
Идентификатор кодека : A_AC3
Продолжительность : 53 м. 55 с.
Вид битрейта : Постоянный
Битрейт : 384 Кбит/сек
Каналы : 6 каналов
Расположение каналов : Front: L C R, Side: L R, LFE
Частота : 48,0 КГц
Частота кадров : 31,250 кадров/сек (1536 spf)
Метод сжатия : С потерями
Размер потока : 148 Мбайт (17%)
Язык : English
Default : Нет
Forced : Нет

pb.wtf



Скачать Джессика Джонс через торрент http://i99.fastpic.ru/big/2018/0313/d4/3bb5e4a8c925cabfe9abd5d4c799bdd4.png Скачать фильм Джессика Джонс через торрент бесплантно в хорошем качестве Описание: После трагических событий, оборвавших короткую супергеройскую карьеру Джессики Джонс, девушка пытается восстановить свою личную ... 10 10 4
Info! Серебряная раздача, засчитывается только 50% скачанного.
Торрент: Зарегистрирован [2018-03-16 02:05] · скачан: 17 раз
Статус: √ проверено
Размер: 11.75 GB
Как cкачать? Как скачать Джессика Джонс через торрент | qTorrent

% Раздел Тема Автор DL S | L
Зарубежные сериалы [ 121.38 GB ] Джессика Джонс / Jessica Jones / Сезон: 2 / Серии: 1-13 из 13 [2018 UHD WEBRip 2160p] 4xMVO sheker187 Скачать
1 | 0
Зарубежные сериалы [ 13.07 GB ] Джессика Джонс / Jessica Jones / Сезон: 2 / Серии: 1-13 из 13 [2018 WEBRip] [MVO] killermax2013 Скачать
1 | 0
Зарубежные сериалы [ 7.88 GB ] Джессика Джонс / Jessica Jones / Сезон: 2 / Серии: 1-13 из 13 [2018 WEBRip] [MVO] killermax2013 Скачать
1 | 0
Зарубежные сериалы [ 56.33 GB ] Джессика Джонс / Jessica Jones / Сезон: 2 / Серии: 1-13 из 13 [2018 WEB-DL 720p] MVO [NewStudio] bober100 Скачать
1 | 0
Зарубежные сериалы [ 22.48 GB ] Джессика Джонс / Jessica Jones / Сезон: 2 / Серии: 1-13 из 13 [2018 WEBRip 1080p] [MVO] killermax2013 Скачать
1 | 0
Зарубежные сериалы [ 8.33 GB ] Джессика Джонс / Jessica Jones / Сезон: 2 / Серии: 1-13 из 13 [2018 WEBRip] [MVO] killermax2013 Скачать
1 | 0
Зарубежные сериалы [ 108.02 GB ] Джессика Джонс / Jessica Jones / Сезон: 2 / Серии: 1-13 из 13 [2018 WEBRip 1080p] MVO [NewStudio] bober100 Скачать
1 | 0


Последний раз редактировалось: bober100 (2018-03-16 02:47), всего редактировалось 1 раз

28-11-2019 20:33  

Отключить всю рекламу на сайте

16-03-2018 02:29 Джессика Джонс Скачать торрент  

без рекламы?pb.wtf



16-03-2018 02:46 Джессика Джонс Скачать торрент  

DavidLynch писал(а):

без рекламы?

Присутствует аудио-рекламаpb.wtf



    Дорогой пользователь! Огромная просьба, поблагодарите релизера, оцените раздачу и оставьте свои комментарий, если Вы скачали Джессика Джонс через торрент бесплатно! Внесите свою лепту в развитие PiratBit!
    Комментировать посты могут только пользователи прошедшие не сложную регистрацию
    Показать сообщения:    

    Джессика Джонс через торрент
    Скачать бесплатно Джессика Джонс
    Джессика Джонс скачать торрент
    Джессика Джонс смотреть онлайн
    Cкачать фильм Джессика Джонс бесплатно
    Джессика Джонс скачать торрент в хорошем качестве
    Джессика Джонс смотреть онлайн бесплатно в хорошем качестве


    Вы не можете начинать темы
    Вы не можете отвечать на сообщения
    Вы не можете редактировать свои сообщения
    Вы не можете удалять свои сообщения
    Вы не можете голосовать в опросах
    Вы не можете прикреплять файлы к сообщениям
    Вы можете скачивать файлы