Ссылка на приватное зеркало нашего сайта всего за 1$. Внимание количество ограничено!!!

2 сезон

iTunes

1 сезон

1

2 сезон

2 сезон

iTunes

1 сезон

RePack

30

Ultimate

ВАЖНО

ИГРА 18+

pack

RePack

MK11
pack

Забери бонус

RePack

jed

!!Акция!!

Alien_Rage

RePack

fifa19

RePack

Assassins Creed: Odyssey

RePack

NEED FOR SPEED™ PAYBACK

4 сезон

9 сезон

Бесстыжие 9 сезон

Все сериалы

все сериалы на PB.wtf

RePack

FAR CRY 5
  

Призрачная башня / The Looming Tower / Сезон: 1 / Серии: 1-10 из 10 (Крейг Зиск, Майкл Словис, Алекс Гибни) [2018, драма, WEBRip] MVO [Jaskier] pb.wtf

Призрачная башня через торрент pb.wtf

Размер: 6 GB | Добавлен: 2 года 7 мес. назад | Торрент скачан:14 раз
Скачать  

16-03-2018 02:43 Призрачная башня Скачать торрент  

Призрачная башня / The Looming TowerИнформация о фильме:

Название: Призрачная башня
Оригинальное название: The Looming Tower
Год выпуска: 2018 (1 сезон)
Страна: США / Legendary Television
Жанр: драма
Продолжительность: ~ 00:45:00 серия
Перевод: Профессиональный многоголосый | Jaskier
Субтитры: отсутствуют

Режиссер: Крейг Зиск, Майкл Словис, Алекс Гибни

rating

В ролях:

Джефф Дэниелс, Тахар Рахим, Ренн Шмидт, Билл Кэмп, Луис Канселми, Вирджиния Кулл, Элла Рэй Пек, Салливан Джонс, Майкл Стулбарг, Питер Сарсгаард, Самер Бишарат, Тауфик Бархом, Алек Болдуин, Дженнифер Дандас и др.

Описание:

В центре событий — агенты ФБР и ЦРУ, которые объединяют усилия в борьбе с растущей террористической угрозой со стороны Усамы бен Ладена и «Аль-Каиды». Однако вскоре ведомства начинают соперничать друг с другом, что в итоге приводит к трагедии 11 сентября и войне в Ираке.

Информация о файле:

Качество: WEBRip
Формат: AVI

Видео: ~ 1500 kbps, 720x400 (16:9), 23.976 fps
Аудио#1: MP3, 48,0 КГц, 2 ch, 128 kbps - Rus
Аудио#2: MP3, 48,0 КГц, 2 ch, 128 kbps - Eng
скриншот   скриншот   скриншот  

Общее
Полное имя : D:\The.Looming.Tower Season 1 (WEBRip l 400p l Jaskier)\The.Looming.Tower.S01E01.WEBRip.Jaskier.avi
Формат : AVI
Формат/Информация : Audio Video Interleave
Размер файла : 633 Мбайт
Продолжительность : 50 м. 1 с.
Общий поток : 1769 Кбит/сек
Программа кодирования : VirtualDubMod 1.5.10.3 | www.virtualdub-fr.org || (build 2550/release)
Библиотека кодирования : VirtualDubMod build 2550/release

Видео
Идентификатор : 0
Формат : MPEG-4 Visual
Профиль формата : Advanced Simple@L5
Параметр BVOP формата : 2
Параметр QPel формата : Нет
Параметр GMC формата : Без точки перехода
Параметр матрицы формата : Default (MPEG)
Идентификатор кодека : XVID
Идентификатор кодека/Подсказка : XviD
Продолжительность : 50 м. 1 с.
Битрейт : 1499 Кбит/сек
Ширина : 720 пикселей
Высота : 400 пикселей
Соотношение сторон : 16:9
Частота кадров : 23,976 (24000/1001) кадра/сек
Цветовое пространство : YUV
Субдискретизация насыщенности : 4:2:0
Битовая глубина : 8 бит
Тип развёртки : Прогрессивная
Метод сжатия : С потерями
Бит/(Пиксели*Кадры) : 0.217
Размер потока : 536 Мбайт (85%)
Библиотека кодирования : XviD 1.2.1 (UTC 2008-12-04)

Аудио #1
Идентификатор : 1
Формат : MPEG Audio
Версия формата : Version 1
Профиль формата : Layer 3
Режим : Joint stereo
Расширение режима : MS Stereo
Идентификатор кодека : 55
Идентификатор кодека/Подсказка : MP3
Продолжительность : 50 м. 1 с.
Вид битрейта : Постоянный
Битрейт : 128 Кбит/сек
Каналы : 2 канала
Частота : 48,0 КГц
Метод сжатия : С потерями
Размер потока : 45,8 Мбайт (7%)
Выравнивание : Соединение по промежуткам
Продолжительность промежутка : 42 мс. (1,00 видеокадр)
Время предзагрузки промежутка : 504 мс.
Библиотека кодирования : LAME3.100Є

Аудио #2
Идентификатор : 2
Формат : MPEG Audio
Версия формата : Version 1
Профиль формата : Layer 3
Режим : Joint stereo
Расширение режима : MS Stereo
Идентификатор кодека : 55
Идентификатор кодека/Подсказка : MP3
Продолжительность : 50 м. 1 с.
Вид битрейта : Постоянный
Битрейт : 128 Кбит/сек
Каналы : 2 канала
Частота : 48,0 КГц
Метод сжатия : С потерями
Размер потока : 45,8 Мбайт (7%)
Выравнивание : Соединение по промежуткам
Продолжительность промежутка : 42 мс. (1,00 видеокадр)
Время предзагрузки промежутка : 504 мс.
Библиотека кодирования : LAME3.100Є

Когда раздача ведётся путём добавления новых серий, при каждом добавлении создётся новый торрент. Чтобы начать докачку новой серии, пользователям необходимо сделать следующее:
(1) остановить скачивание,
(2) удалить старый торрент у себя из клиента (старые серии удалять не надо),
(3) скачать новый торрент и запустить его у себя в клиенте вместо старого, при этом указать клиенту путь в старую папку, куда и должно происходить скачивание новых серий.
Ваш клиент при этом должен произвести хеширование (проверку) старой папки (если не производит сам - помогите ему сделать это), и будет докачивать только те серии, которых у вас ещё нет. Старые серии при этом не удаляются, а продолжают раздаваться!
Eсли вы уже удалили старые серии, то предотвратить повторную закачку старых серий можно, отжав галочку в соответсвующих местах при запуске нового торрента. По возможности, желательно не удалять старые серии как можно дольше, чтобы релизёр не столько продолжал раздавать старые серии, а смог сконцентрироваться на новых.
pb.wtf



Скачать Призрачная башня через торрент http://i102.fastpic.ru/big/2018/0305/d3/51af235c32ecb352915e5f724b1fa1d3.jpg Скачать фильм Призрачная башня через торрент бесплантно в хорошем качестве Описание: В центре событий — агенты ФБР и ЦРУ, которые объединяют усилия в борьбе с растущей террористической угрозой со стороны Усамы бен ... 8.5 10 4
Торрент: Зарегистрирован [2018-04-26 02:13] · скачан: 14 раз
Статус: √ проверено
Размер: 6 GB
Как cкачать? Как скачать Призрачная башня через торрент | qTorrent

% Раздел Тема Автор DL S | L
Зарубежные сериалы [ 24.62 GB ] Призрачная башня / The Looming Tower / Сезон: 1 / Серии: 1-10 из 10 [2018 WEBRip 1080p] MVO [TVShows] bober100 Скачать
1 | 0
Зарубежные сериалы [ 5.86 GB ] Призрачная башня / The Looming Tower / Сезон: 1 / Серии: 1-10 из 10 [2018 WEB-DLRip] MVO [LostFilm] bober100 Скачать
1 | 0
Зарубежные сериалы [ 8.13 GB ] Призрачная башня / The Looming Tower / Сезон: 1 / Серии: 1-10 из 10 [2018 WEBRip 720p] DVO [SunshineStudio] bober100 Скачать
1 | 0
Зарубежные сериалы [ 5.84 GB ] Призрачная башня / The Looming Tower / Сезон: 1 / Серии: 1-10 из 10 [2018 WEBRip] DVO [SunshineStudio] bober100 Скачать
1 | 0
Зарубежные сериалы [ 24.86 GB ] Призрачная башня / The Looming Tower / Сезон: 1 / Серии: 1-10 из 10 [2018 WEBRip 1080p] MVO [Jaskier] bober100 Скачать
1 | 0
Зарубежные сериалы [ 16.92 GB ] Призрачная башня / The Looming Tower / Сезон 1 / Серии 1 - 10 из 10 [2018 WEBRip 1080p] MVO senya120879 Скачать
1 | 0
Зарубежные сериалы [ 11 GB ] Призрачная башня / The Looming Tower / Сезон: 1 / Серии: 1-10 из 10 [2018 WEBRip 720p] MVO [Jaskier] bober100 Скачать
1 | 0

28-11-2019 20:33  

Отключить всю рекламу на сайте

    Дорогой пользователь! Огромная просьба, поблагодарите релизера, оцените раздачу и оставьте свои комментарий, если Вы скачали Призрачная башня через торрент бесплатно! Внесите свою лепту в развитие PiratBit!
    Комментировать посты могут только пользователи прошедшие не сложную регистрацию
    Показать сообщения:    

    Призрачная башня через торрент
    Скачать бесплатно Призрачная башня
    Призрачная башня скачать торрент
    Призрачная башня смотреть онлайн
    Cкачать фильм Призрачная башня бесплатно
    Призрачная башня скачать торрент в хорошем качестве
    Призрачная башня смотреть онлайн бесплатно в хорошем качестве


    Вы не можете начинать темы
    Вы не можете отвечать на сообщения
    Вы не можете редактировать свои сообщения
    Вы не можете удалять свои сообщения
    Вы не можете голосовать в опросах
    Вы не можете прикреплять файлы к сообщениям
    Вы можете скачивать файлы