Ссылка на приватное зеркало нашего сайта всего за 1$. Внимание количество ограничено!!!

2 сезон

iTunes

1 сезон

1

2 сезон

2 сезон

iTunes

1 сезон

RePack

30

Новинка

ВАЖНО

ИГРА 18+

pack

RePack

MK11
pack

Забери бонус

RePack

jed

!!Акция!!

Alien_Rage

RePack

fifa19

RePack

Assassins Creed: Odyssey

RePack

NEED FOR SPEED™ PAYBACK

4 сезон

9 сезон

Бесстыжие 9 сезон

Все сериалы

все сериалы на PB.wtf

RePack

FAR CRY 5
  

Призрачная башня / The Looming Tower / Сезон: 1 / Серии: 1-10 из 10 (Крейг Зиск, Майкл Словис, Алекс Гибни) [2018, драма, WEBRip 720p] MVO [Jaskier] pb.wtf

Призрачная башня через торрент pb.wtf

Размер: 11 GB | Добавлен: 2 года 6 мес. назад | Торрент скачан:6 раз
Скачать  

16-03-2018 02:52 Призрачная башня Скачать торрент  

Призрачная башня / The Looming TowerИнформация о фильме:

Название: Призрачная башня
Оригинальное название: The Looming Tower
Год выпуска: 2018 (1 сезон)
Страна: США / Legendary Television
Жанр: драма
Продолжительность: ~ 00:45:00 серия
Перевод: Профессиональный многоголосый | Jaskier
Субтитры: отсутствуют

Режиссер: Крейг Зиск, Майкл Словис, Алекс Гибни

rating

В ролях:

Джефф Дэниелс, Тахар Рахим, Ренн Шмидт, Билл Кэмп, Луис Канселми, Вирджиния Кулл, Элла Рэй Пек, Салливан Джонс, Майкл Стулбарг, Питер Сарсгаард, Самер Бишарат, Тауфик Бархом, Алек Болдуин, Дженнифер Дандас и др.

Описание:

В центре событий — агенты ФБР и ЦРУ, которые объединяют усилия в борьбе с растущей террористической угрозой со стороны Усамы бен Ладена и «Аль-Каиды». Однако вскоре ведомства начинают соперничать друг с другом, что в итоге приводит к трагедии 11 сентября и войне в Ираке.

Информация о файле:

Качество: WEBRip 720p
Формат: MKV

Видео: 1280x720 (16:9) | X264 | ~2526 kbps | 23.976 fps
Аудио#1: AC3, 48,0 КГц, 6 ch, 384 kbps - [RUS]
Аудио#2: AC3, 48,0 КГц, 6 ch, 384 kbps - [ENG]
скриншот   скриншот   скриншот  

Общее
Уникальный идентификатор : 314436666863195142313538952362305656602 (0xEC8E4C9A80860E8EA3C20420CB1A171A)
Полное имя : D:\The.Looming.Tower Season 1 (WEBRip l 720p l Jaskier)\The.Looming.Tower.S01E01.WEBRip.720p.Jaskier.mkv
Формат : Matroska
Версия формата : Version 4 / Version 2
Размер файла : 1,15 Гбайт
Продолжительность : 50 м. 1 с.
Режим общего битрейта : Переменный
Общий поток : 3296 Кбит/сек
Дата кодирования : UTC 2018-03-05 09:39:08
Программа кодирования : mkvmerge v19.0.0 ('Brave Captain') 64-bit
Библиотека кодирования : libebml v1.3.5 + libmatroska v1.4.8

Видео
Идентификатор : 1
Формат : AVC
Формат/Информация : Advanced Video Codec
Профиль формата : High@L3.1
Параметр CABAC формата : Да
Параметр RefFrames формата : 5 кадров
Идентификатор кодека : V_MPEG4/ISO/AVC
Продолжительность : 50 м. 1 с.
Вид битрейта : Переменный
Битрейт : 2526 Кбит/сек
Максимальный битрейт : 4500 Кбит/сек
Ширина : 1280 пикселей
Высота : 720 пикселей
Соотношение сторон : 16:9
Режим частоты кадров : Постоянный
Частота кадров : 23,976 (24000/1001) кадра/сек
Цветовое пространство : YUV
Субдискретизация насыщенности : 4:2:0
Битовая глубина : 8 бит
Тип развёртки : Прогрессивная
Бит/(Пиксели*Кадры) : 0.111
Размер потока : 881 Мбайт (75%)
Default : Да
Forced : Нет
Цветовой диапазон : Limited
Основные цвета : BT.709
Характеристики трансфера : BT.709
Коэффициенты матрицы : BT.709

Аудио #1
Идентификатор : 2
Формат : AC-3
Формат/Информация : Audio Coding 3
Расширение режима : CM (complete main)
Параметр Endianness формата : Big
Идентификатор кодека : A_AC3
Продолжительность : 50 м. 1 с.
Вид битрейта : Постоянный
Битрейт : 384 Кбит/сек
Каналы : 6 каналов
Расположение каналов : Front: L C R, Side: L R, LFE
Частота : 48,0 КГц
Частота кадров : 31,250 кадров/сек (1536 spf)
Метод сжатия : С потерями
Размер потока : 137 Мбайт (12%)
Заголовок : Jaskier
Язык : Russian
Default : Да
Forced : Нет

Аудио #2
Идентификатор : 3
Формат : AC-3
Формат/Информация : Audio Coding 3
Расширение режима : CM (complete main)
Параметр Endianness формата : Big
Идентификатор кодека : A_AC3
Продолжительность : 50 м. 1 с.
Вид битрейта : Постоянный
Битрейт : 384 Кбит/сек
Каналы : 6 каналов
Расположение каналов : Front: L C R, Side: L R, LFE
Частота : 48,0 КГц
Частота кадров : 31,250 кадров/сек (1536 spf)
Метод сжатия : С потерями
Размер потока : 137 Мбайт (12%)
Язык : English
Default : Нет
Forced : Нет

Когда раздача ведётся путём добавления новых серий, при каждом добавлении создётся новый торрент. Чтобы начать докачку новой серии, пользователям необходимо сделать следующее:
(1) остановить скачивание,
(2) удалить старый торрент у себя из клиента (старые серии удалять не надо),
(3) скачать новый торрент и запустить его у себя в клиенте вместо старого, при этом указать клиенту путь в старую папку, куда и должно происходить скачивание новых серий.
Ваш клиент при этом должен произвести хеширование (проверку) старой папки (если не производит сам - помогите ему сделать это), и будет докачивать только те серии, которых у вас ещё нет. Старые серии при этом не удаляются, а продолжают раздаваться!
Eсли вы уже удалили старые серии, то предотвратить повторную закачку старых серий можно, отжав галочку в соответсвующих местах при запуске нового торрента. По возможности, желательно не удалять старые серии как можно дольше, чтобы релизёр не столько продолжал раздавать старые серии, а смог сконцентрироваться на новых.
pb.wtf



Скачать Призрачная башня через торрент http://i102.fastpic.ru/big/2018/0305/d3/51af235c32ecb352915e5f724b1fa1d3.jpg Скачать фильм Призрачная башня через торрент бесплантно в хорошем качестве Описание: В центре событий — агенты ФБР и ЦРУ, которые объединяют усилия в борьбе с растущей террористической угрозой со стороны Усамы бен ... 7.3 10 3
Info! Серебряная раздача, засчитывается только 50% скачанного.
Торрент: Зарегистрирован [2018-04-26 02:15] · скачан: 6 раз
Статус: √ проверено
Размер: 11 GB
Как cкачать? Как скачать Призрачная башня через торрент | qTorrent

% Раздел Тема Автор DL S | L
Зарубежные сериалы [ 24.62 GB ] Призрачная башня / The Looming Tower / Сезон: 1 / Серии: 1-10 из 10 [2018 WEBRip 1080p] MVO [TVShows] bober100 Скачать
1 | 0
Зарубежные сериалы [ 5.86 GB ] Призрачная башня / The Looming Tower / Сезон: 1 / Серии: 1-10 из 10 [2018 WEB-DLRip] MVO [LostFilm] bober100 Скачать
1 | 0
Зарубежные сериалы [ 8.13 GB ] Призрачная башня / The Looming Tower / Сезон: 1 / Серии: 1-10 из 10 [2018 WEBRip 720p] DVO [SunshineStudio] bober100 Скачать
1 | 0
Зарубежные сериалы [ 5.84 GB ] Призрачная башня / The Looming Tower / Сезон: 1 / Серии: 1-10 из 10 [2018 WEBRip] DVO [SunshineStudio] bober100 Скачать
1 | 0
Зарубежные сериалы [ 24.86 GB ] Призрачная башня / The Looming Tower / Сезон: 1 / Серии: 1-10 из 10 [2018 WEBRip 1080p] MVO [Jaskier] bober100 Скачать
1 | 0
Зарубежные сериалы [ 16.92 GB ] Призрачная башня / The Looming Tower / Сезон 1 / Серии 1 - 10 из 10 [2018 WEBRip 1080p] MVO senya120879 Скачать
1 | 0
Зарубежные сериалы [ 6 GB ] Призрачная башня / The Looming Tower / Сезон: 1 / Серии: 1-10 из 10 [2018 WEBRip] MVO [Jaskier] bober100 Скачать
1 | 0

28-11-2019 20:33  

Отключить всю рекламу на сайте

    Дорогой пользователь! Огромная просьба, поблагодарите релизера, оцените раздачу и оставьте свои комментарий, если Вы скачали Призрачная башня через торрент бесплатно! Внесите свою лепту в развитие PiratBit!
    Комментировать посты могут только пользователи прошедшие не сложную регистрацию
    Показать сообщения:    

    Призрачная башня через торрент
    Скачать бесплатно Призрачная башня
    Призрачная башня скачать торрент
    Призрачная башня смотреть онлайн
    Cкачать фильм Призрачная башня бесплатно
    Призрачная башня скачать торрент в хорошем качестве
    Призрачная башня смотреть онлайн бесплатно в хорошем качестве


    Вы не можете начинать темы
    Вы не можете отвечать на сообщения
    Вы не можете редактировать свои сообщения
    Вы не можете удалять свои сообщения
    Вы не можете голосовать в опросах
    Вы не можете прикреплять файлы к сообщениям
    Вы можете скачивать файлы