Ссылка на приватное зеркало нашего сайта всего за 1$. Внимание количество ограничено!!!

2 сезон

iTunes

1 сезон

1

iTunes

iTunes

iTunes

1 сезон

RePack

30

ИГРА 18+

pack

ВАЖНО

!!Акция!!

Alien_RageХит недели

RePack

MK11
pack

Забери бонус

RePack

jed

!!Акция!!

Alien_Rage

RePack

fifa19

RePack

Assassins Creed: Odyssey

RePack

NEED FOR SPEED™ PAYBACK

4 сезон

9 сезон

Бесстыжие 9 сезон

Все сериалы

все сериалы на PB.wtf

RePack

FAR CRY 5
  

Фердинанд / Ferdinand (Карлос Салдана) [2017, семейный, комедия, мультфильм, BDRip-AVC] DUB [Лицензия, Rus, Ukr] - ExKinoRay pb.wtf

Фердинанд через торрент pb.wtf

Раздают: 1 [ 0 KB/s ]
Размер: 2.32 GB | Добавлен: 2 года 7 мес. назад | Торрент скачан:1566 раз
Скачать  

16-03-2018 04:54 Фердинанд Скачать торрент  

Информация о фильме
Название: Фердинанд
Оригинальное название: Ferdinand
Год выпуска: 2017
Жанр: Семейный, комедия, мультфильм
Страна: США
Студия: Blue Sky Studios, Davis Entertainment, Twentieth Century Fox Animation
Продолжительность: 01:48:12
Перевод: Дублированный | Лицензия BD EUR
Субтитры: Русские, английские, украинские
Режиссер: Карлос Салдана
В ролях: Джон Сина, Кейт МакКиннон, Дэвид Теннант, Бобби Каннавейл, Энтони Андерсон, Джек Гор, Джет Юргенсмейер, Найл Диас, Колин Х. Мерфи, Карлос Салдана

Описание:
Фердинанд — самый добродушный бык во всей Испании. Несмотря на внушительные размеры и недюжинную силу, он с детства предпочитал сидеть на лужайке и любоваться цветами вместо того, чтобы бодаться с другими быками. По нелепой случайности Фердинанд был выбран среди других соплеменников для участия в бое быков в Мадриде.

rating

Файл
Формат: MKV
Качество: BDRip-AVC
Видео: MPEG-4 AVC, 1024x428 (2.40:1), 23.976 fps, 1724 Kbps, 0.164 bit/pixel
Аудио#1: 48 kHz, AC3, 3/2 (L,C,R,l,r) + LFE ch, ~448 kbps avg | Rus |
Аудио#2: 48 kHz, AC3, 3/2 (L,C,R,l,r) + LFE ch, ~448 kbps avg | Ukr |
Аудио#3: 48 kHz, AC3, 3/2 (L,C,R,l,r) + LFE ch, ~448 kbps avg | Eng |
General
Unique ID : 208158887402879726917270238376175741497 (0x9C99F1858AFEC4C188081C6AE2962A39)
Complete name : D:\Ferdinand.2017.BDRip.AVC.ExKinoRay.mkv
Format : Matroska
Format version : Version 2
File size : 2.32 GiB
Duration : 1 h 48 min
Overall bit rate : 3 070 kb/s
Movie name : Ferdinand (2017) from ExKinoRay
Encoded date : UTC 2018-03-16 03:46:16
Writing application : mkvmerge v5.6.0 ('Kenya Kane') built on May 27 2012 16:44:04
Writing library : libebml v1.2.3 + libmatroska v1.3.0

Video
ID : 1
Format : AVC
Format/Info : Advanced Video Codec
Format profile : High@L4.1
Format settings, CABAC : Yes
Format settings, ReFrames : 11 frames
Codec ID : V_MPEG4/ISO/AVC
Duration : 1 h 48 min
Bit rate : 1 724 kb/s
Width : 1 024 pixels
Height : 428 pixels
Display aspect ratio : 2.40:1
Frame rate mode : Constant
Frame rate : 23.976 (23976/1000) FPS
Color space : YUV
Chroma subsampling : 4:2:0
Bit depth : 8 bits
Scan type : Progressive
Bits/(Pixel*Frame) : 0.164
Stream size : 1.26 GiB (54%)
Title : Enigma
Writing library : x264 core 152 r2851 ba24899
Encoding settings : cabac=1 / ref=11 / deblock=1:-2:-2 / analyse=0x3:0x113 / me=umh / subme=11 / psy=1 / psy_rd=1.00:0.05 / mixed_ref=1 / me_range=32 / chroma_me=1 / trellis=2 / 8x8dct=1 / cqm=0 / deadzone=21,11 / fast_pskip=0 / chroma_qp_offset=-3 / threads=12 / lookahead_threads=3 / sliced_threads=0 / nr=0 / decimate=0 / interlaced=0 / bluray_compat=0 / constrained_intra=0 / bframes=12 / b_pyramid=2 / b_adapt=2 / b_bias=0 / direct=3 / weightb=1 / open_gop=0 / weightp=2 / keyint=240 / keyint_min=23 / scenecut=40 / intra_refresh=0 / rc_lookahead=40 / rc=2pass / mbtree=0 / bitrate=1724 / ratetol=1.0 / qcomp=0.60 / qpmin=0 / qpmax=51 / qpstep=4 / cplxblur=20.0 / qblur=0.5 / vbv_maxrate=50000 / vbv_bufsize=62500 / nal_hrd=none / filler=0 / ip_ratio=1.40 / pb_ratio=1.30 / aq=1:1.00
Language : English
Default : Yes
Forced : No
Color range : Limited
Color primaries : BT.709
Transfer characteristics : BT.709
Matrix coefficients : BT.709

Audio #1
ID : 2
Format : AC-3
Format/Info : Audio Coding 3
Mode extension : CM (complete main)
Format settings, Endianness : Big
Codec ID : A_AC3
Duration : 1 h 48 min
Bit rate mode : Constant
Bit rate : 448 kb/s
Channel(s) : 6 channels
Channel positions : Front: L C R, Side: L R, LFE
Sampling rate : 48.0 kHz
Frame rate : 31.250 FPS (1536 spf)
Compression mode : Lossy
Stream size : 347 MiB (15%)
Title : Dub (Blu-Ray)
Language : Russian
Default : Yes
Forced : No

Audio #2
ID : 3
Format : AC-3
Format/Info : Audio Coding 3
Mode extension : CM (complete main)
Format settings, Endianness : Big
Codec ID : A_AC3
Duration : 1 h 48 min
Bit rate mode : Constant
Bit rate : 448 kb/s
Channel(s) : 6 channels
Channel positions : Front: L C R, Side: L R, LFE
Sampling rate : 48.0 kHz
Frame rate : 31.250 FPS (1536 spf)
Compression mode : Lossy
Stream size : 347 MiB (15%)
Title : Dub
Language : Ukrainian
Default : No
Forced : No

Audio #3
ID : 4
Format : AC-3
Format/Info : Audio Coding 3
Mode extension : CM (complete main)
Format settings, Endianness : Big
Codec ID : A_AC3
Duration : 1 h 48 min
Bit rate mode : Constant
Bit rate : 448 kb/s
Channel(s) : 6 channels
Channel positions : Front: L C R, Side: L R, LFE
Sampling rate : 48.0 kHz
Frame rate : 31.250 FPS (1536 spf)
Compression mode : Lossy
Stream size : 347 MiB (15%)
Language : English
Default : No
Forced : No

Text #1
ID : 5
Format : UTF-8
Codec ID : S_TEXT/UTF8
Codec ID/Info : UTF-8 Plain Text
Language : Russian
Default : No
Forced : No

Text #2
ID : 6
Format : UTF-8
Codec ID : S_TEXT/UTF8
Codec ID/Info : UTF-8 Plain Text
Language : Ukrainian
Default : No
Forced : No

Text #3
ID : 7
Format : UTF-8
Codec ID : S_TEXT/UTF8
Codec ID/Info : UTF-8 Plain Text
Title : Full
Language : English
Default : No
Forced : No

Text #4
ID : 8
Format : UTF-8
Codec ID : S_TEXT/UTF8
Codec ID/Info : UTF-8 Plain Text
Title : SDH
Language : English
Default : No
Forced : No

Menu
00:00:00.000 : en:Chapter 1
00:03:37.800 : en:Chapter 2
00:08:10.281 : en:Chapter 3
00:11:51.460 : en:Chapter 4
00:16:23.524 : en:Chapter 5
00:24:14.870 : en:Chapter 6
00:28:30.458 : en:Chapter 7
00:34:03.124 : en:Chapter 8
00:37:53.187 : en:Chapter 9
00:40:54.160 : en:Chapter 10
00:44:55.359 : en:Chapter 11
00:49:15.994 : en:Chapter 12
00:53:27.245 : en:Chapter 13
00:59:40.952 : en:Chapter 14
01:03:20.671 : en:Chapter 15
01:06:23.270 : en:Chapter 16
01:09:19.822 : en:Chapter 17
01:12:18.917 : en:Chapter 18
01:17:33.940 : en:Chapter 19
01:20:55.058 : en:Chapter 20
01:25:33.837 : en:Chapter 21
01:30:38.391 : en:Chapter 22
01:36:01.839 : en:Chapter 23
01:38:01.166 : en:Chapter 24
Релиз от:

Автор релиза: pb.wtf



Скачать Фердинанд через торрент http://i102.fastpic.ru/big/2018/0315/00/73c0ef274ffc3ccdc769777c7a9f1700.jpg Скачать фильм Фердинанд через торрент бесплантно в хорошем качестве Описание: Фердинанд — самый добродушный бык во всей Испании. Несмотря на внушительные размеры и недюжинную силу, он с детства предпочитал ... 9.8 10 27
Info! Золотая раздача, скачанное не засчитывается.
Торрент: Зарегистрирован [2018-03-16 04:54] · скачан: 1 566 раз
Статус: √ проверено
Размер: 2.32 GB
Как cкачать? Как скачать Фердинанд через торрент | qTorrent

28-11-2019 20:33  

Отключить всю рекламу на сайте

16-03-2018 06:29 Фердинанд Скачать торрент  

Хороший добрый мульт 5 из 5pb.wtf



    Дорогой пользователь! Огромная просьба, поблагодарите релизера, оцените раздачу и оставьте свои комментарий, если Вы скачали Фердинанд через торрент бесплатно! Внесите свою лепту в развитие PiratBit!
    Комментировать посты могут только пользователи прошедшие не сложную регистрацию
    Показать сообщения:    

    Фердинанд через торрент
    Скачать бесплатно Фердинанд
    Фердинанд скачать торрент
    Фердинанд смотреть онлайн
    Cкачать фильм Фердинанд бесплатно
    Фердинанд скачать торрент в хорошем качестве
    Фердинанд смотреть онлайн бесплатно в хорошем качестве


    Вы не можете начинать темы
    Вы не можете отвечать на сообщения
    Вы не можете редактировать свои сообщения
    Вы не можете удалять свои сообщения
    Вы не можете голосовать в опросах
    Вы не можете прикреплять файлы к сообщениям
    Вы можете скачивать файлы