Ссылка на приватное зеркало нашего сайта всего за 1$. Внимание количество ограничено!!!

2 сезон

iTunes

1 сезон

1

iTunes

iTunes

iTunes

1 сезон

RePack

30

ИГРА 18+

pack

ВАЖНО

!!Акция!!

Alien_RageХит недели

RePack

MK11
pack

Забери бонус

RePack

jed

!!Акция!!

Alien_Rage

RePack

fifa19

RePack

Assassins Creed: Odyssey

RePack

NEED FOR SPEED™ PAYBACK

4 сезон

9 сезон

Бесстыжие 9 сезон

Все сериалы

все сериалы на PB.wtf

RePack

FAR CRY 5
  

Мухтар. Новый след / Сезон: 1 / Серии: 1-96 из 96 (Владимир Златоустовский, Валерий Шалыга) [2017, Детектив, криминал, HDTVRip-AVC ] pb.wtf

Мухтар. Новый след через торрент pb.wtf

Размер: 62.72 GB | Добавлен: 2 года 7 мес. назад | Торрент скачан:9 раз
Скачать  

16-03-2018 06:31 Мухтар. Новый след Скачать торрент  

Мухтар. Новый следГод выпуска: 2017
Страна: Россия
Жанр: Детектив, криминал
Продолжительность: 96 х ~ 00:47:00
Субтитры: отсутствуют

Режиссер: Владимир Златоустовский, Валерий Шалыга



В ролях:

Павел Вишняков, Алексей Моисеев, Наталья Юнникова, Александр Воеводин, Оксана Сташенко, Константин Костышин, Жанна Богдевич, Гарик Быстряков, Анастасия Гиренкова, Георгий Жуков (II), Александр Жуковин, Роман Лукьянов, Ольга Радчук, Татьяна Рощина, Валентин Самохин

Описание:

Продолжение полюбившегося зрителями сериала, впервые показанного на НТВ в 2004 году. Это череда историй о приключениях сплоченной команды сотрудников милиции и служебного пса Мухтара. Оперативники Максим Жаров (в новом сезоне его роль исполняет Павел Вишняков) и Алексей Самойлов (Алексей Моисеев), следователь Василиса Михайлова (Наталья Юнникова) и их четвероногий друг снова раскрывают самые разные преступления. Чаще всего главную роль в расследованиях играет именно мохнатый страж порядка. Несмотря на то, что у Мухтара теперь новый хозяин, работа все та же — найти и обезвредить! Помимо того, что Мухтар — настоящий профессионал, он еще и верный помощник, настоящий друг, готовый всегда прийти на выручку. Он — душа команды. Именно благодаря его уникальным способностям — исключительному обонянию, «шестому чувству», моментальности реакций и преданности хозяину — команде детективов удается справляться с делами самой повышенной сложности.

Качество: HDTVRip-AVC
Формат: MKV

Видео: MPEG-4 AVC, ~ 2000 Кбит/с, 1024x576, 25 кадр/с
Аудио: AC3, 2 ch, 192 Кбит/с
скриншот   скриншот   скриншот   скриншот  

Общее
Уникальный идентификатор : 240090429455277282684060240916990319089 (0xB49FBC183D67BDC494911436C296D9F1)
Полное имя : D:\Muchtar.novyj.sled.(2017).HDTVRip.(AVC).Files-x\01.Muchtar.novyj.sled.(2017).HDTVRip.AVC.by.Серый1779.Files-x.mkv
Формат : Matroska
Версия формата : Version 2
Размер файла : 659 Мбайт
Продолжительность : 41 м. 59 с.
Общий поток : 2194 Кбит/сек
Дата кодирования : UTC 2017-03-21 02:49:06
Программа кодирования : mkvmerge v7.8.0 ('River Man') 32bit built on Apr 3 2015 12:11:22
Библиотека кодирования : libebml v1.3.1 + libmatroska v1.4.2

Видео
Идентификатор : 1
Формат : AVC
Формат/Информация : Advanced Video Codec
Профиль формата : High@L4
Параметр CABAC формата : Да
Параметр RefFrames формата : 9 кадров
Идентификатор кодека : V_MPEG4/ISO/AVC
Продолжительность : 41 м. 59 с.
Битрейт : 2000 Кбит/сек
Ширина : 1024 пикселя
Высота : 576 пикселей
Соотношение сторон : 16:9
Режим частоты кадров : Постоянный
Частота кадров : 25,000 кадров/сек
Цветовое пространство : YUV
Субдискретизация насыщенности : 4:2:0
Битовая глубина : 8 бит
Тип развёртки : Прогрессивная
Бит/(Пиксели*Кадры) : 0.136
Размер потока : 588 Мбайт (89%)
Библиотека кодирования : x264 core 146 r2538 121396c
Настройки программы : cabac=1 / ref=9 / deblock=1:-2:-1 / analyse=0x3:0x113 / me=umh / subme=9 / psy=1 / psy_rd=1.00:0.15 / mixed_ref=1 / me_range=32 / chroma_me=1 / trellis=2 / 8x8dct=1 / cqm=0 / deadzone=21,11 / fast_pskip=0 / chroma_qp_offset=-3 / threads=6 / lookahead_threads=1 / sliced_threads=0 / nr=0 / decimate=1 / interlaced=0 / bluray_compat=0 / constrained_intra=0 / bframes=9 / b_pyramid=2 / b_adapt=2 / b_bias=0 / direct=1 / weightb=1 / open_gop=0 / weightp=2 / keyint=250 / keyint_min=25 / scenecut=40 / intra_refresh=0 / rc_lookahead=50 / rc=2pass / mbtree=0 / bitrate=2000 / ratetol=1.0 / qcomp=0.60 / qpmin=0 / qpmax=69 / qpstep=4 / cplxblur=20.0 / qblur=0.5 / vbv_maxrate=14000 / vbv_bufsize=14000 / nal_hrd=none / filler=0 / ip_ratio=1.40 / pb_ratio=1.30 / aq=2:1.00
Default : Да
Forced : Нет
Цветовой диапазон : Limited
Основные цвета : BT.709
Характеристики трансфера : BT.709
Коэффициенты матрицы : BT.709

Аудио
Идентификатор : 2
Формат : AC-3
Формат/Информация : Audio Coding 3
Расширение режима : CM (complete main)
Параметр Endianness формата : Big
Идентификатор кодека : A_AC3
Продолжительность : 41 м. 59 с.
Вид битрейта : Постоянный
Битрейт : 192 Кбит/сек
Каналы : 2 канала
Расположение каналов : Front: L R
Частота : 48,0 КГц
Частота кадров : 31,250 кадров/сек (1536 spf)
Метод сжатия : С потерями
Размер потока : 57,7 Мбайт (9%)
Default : Да
Forced : Нет

pb.wtf



Скачать Мухтар. Новый след через торрент http://img11.lostpic.net/2017/04/28/1802ecbff1d661ab2abf757382e6c73e.jpg Скачать фильм Мухтар. Новый след через торрент бесплантно в хорошем качестве Описание: Продолжение полюбившегося зрителями сериала, впервые показанного на НТВ в 2004 году. Это череда историй о приключениях сплоченной ... 10 10 2
Info! Золотая раздача, скачанное не засчитывается.
Торрент: Зарегистрирован [2018-03-16 06:31] · скачан: 9 раз
Статус: √ проверено
Размер: 62.72 GB
Как cкачать? Как скачать Мухтар. Новый след через торрент | qTorrent

% Раздел Тема Автор DL S | L
Наши сериалы [ 51.6 GB ] Мухтар. Новый след / Сезон: 1 / Серии: 1-96 из 96 [2017 HDTVRip] bober100 Скачать
1 | 0

28-11-2019 20:33  

Отключить всю рекламу на сайте

    Дорогой пользователь! Огромная просьба, поблагодарите релизера, оцените раздачу и оставьте свои комментарий, если Вы скачали Мухтар. Новый след через торрент бесплатно! Внесите свою лепту в развитие PiratBit!
    Комментировать посты могут только пользователи прошедшие не сложную регистрацию
    Показать сообщения:    

    Мухтар. Новый след через торрент
    Скачать бесплатно Мухтар. Новый след
    Мухтар. Новый след скачать торрент
    Мухтар. Новый след смотреть онлайн
    Cкачать фильм Мухтар. Новый след бесплатно
    Мухтар. Новый след скачать торрент в хорошем качестве
    Мухтар. Новый след смотреть онлайн бесплатно в хорошем качестве


    Вы не можете начинать темы
    Вы не можете отвечать на сообщения
    Вы не можете редактировать свои сообщения
    Вы не можете удалять свои сообщения
    Вы не можете голосовать в опросах
    Вы не можете прикреплять файлы к сообщениям
    Вы можете скачивать файлы