Ссылка на приватное зеркало всего за 1$. Внимание количество ограничено!!!

OK

1+1

iTunes

мы

OK

1

WEB-DLRip

Джокер

Пифагор

Ведьмак / The Witcher сериал

Лицензия

ПШазам

ОК

Оно 2

iTunes

30
pack

Вам бонус

ВАЖНО

!!Акция!!

Alien_RageХит недели

RePack

Resident Evil 21

ИГРА 18+

pack

RePack

jed

RePack

fifa19

RePack

Assassins Creed: Odyssey

RePack

NEED FOR SPEED™ PAYBACK

4 сезон

9 сезон

Бесстыжие 9 сезон

Все сериалы

все сериалы на PB.wtf

RePack

FAR CRY 5
  

Холостяк по соседству / The Bachelor Next Door (Майкл Фейфер) [2017, драма, HDTVRip 720p] MVO ["Синема УС"] pb.wtf

Холостяк по соседству через торрент pb.wtf

Размер: 2.85 GB | Добавлен: 1 год 10 мес. назад | Торрент скачан:48 раз
Скачать  

16-03-2018 09:34 Холостяк по соседству Скачать торрент  

Холостяк по соседству / The Bachelor Next DoorГод выпуска: 2017
Страна: США
Жанр: драма
Продолжительность: 01:24:26
Перевод: Любительский (многоголосый) | ["Синема УС"]
Субтитры: отсутствуют

Режиссер: Майкл Фейфер

rating


В ролях:

Хэйли Дафф, Майкл Уэлш, Бриттани Андервуд, Тайлер Джонсон, Кайа Коли, Стивен Брунс, Ким Эстес, Прити Десаи, Дэвид Хилл

Описание:

Мирную жизнь Алекс и Гэвина нарушает их новый сосед, Дональд. Он хорошо воспитан, дружелюбен и всегда готов помочь. Но его чрезмерная услужливость со временем начинает перетекать в назойливость и влюблённые понимают, что Дональд появился в их городе не просто так.

Качество: HDTVRip 720p
Формат: MKV
Видео кодек: H.264
Аудио кодек: AC3

Видео: 4446 Kb/s, 1280x720
Аудио#1: Русский, (AC3, 2 ch, 384 Кбит/с)
скриншот  скриншот  скриншот  

Общее
Уникальный идентификатор : 237344179435106661943862372109348225294 (0xB28ED383CF533E1BA3F826785863C10E)
Полное имя : D:\The Bachelor Next Door 2018.P.HDTV.72Op_KOSHARA.mkv
Формат : Matroska
Версия формата : Version 2
Размер файла : 2,85 Гбайт
Продолжительность : 1 ч. 24 м.
Режим общего битрейта : Переменный
Общий поток : 4832 Кбит/сек
Дата кодирования : UTC 2018-03-14 16:10:31
Программа кодирования : mkvmerge v8.3.0 ('Over the Horizon') 64bit
Библиотека кодирования : libebml v1.3.1 + libmatroska v1.4.2

Видео
Идентификатор : 1
Формат : AVC
Формат/Информация : Advanced Video Codec
Профиль формата : High@L4.1
Параметр CABAC формата : Да
Параметр RefFrames формата : 4 кадра
Идентификатор кодека : V_MPEG4/ISO/AVC
Продолжительность : 1 ч. 24 м.
Вид битрейта : Переменный
Битрейт : 4446 Кбит/сек
Максимальный битрейт : 5000 Кбит/сек
Ширина : 1280 пикселей
Высота : 720 пикселей
Соотношение сторон : 16:9
Режим частоты кадров : Постоянный
Частота кадров : 23,976 (24000/1001) кадра/сек
Стандарт вещания : Component
Цветовое пространство : YUV
Субдискретизация насыщенности : 4:2:0
Битовая глубина : 8 бит
Тип развёртки : Прогрессивная
Бит/(Пиксели*Кадры) : 0.197
Размер потока : 2,57 Гбайт (90%)
Default : Да
Forced : Нет
Цветовой диапазон : Limited
Основные цвета : BT.709
Характеристики трансфера : BT.709
Коэффициенты матрицы : BT.709

Аудио
Идентификатор : 2
Формат : AC-3
Формат/Информация : Audio Coding 3
Расширение режима : CM (complete main)
Параметр Endianness формата : Big
Идентификатор кодека : A_AC3
Продолжительность : 1 ч. 24 м.
Вид битрейта : Постоянный
Битрейт : 384 Кбит/сек
Каналы : 2 канала
Расположение каналов : Front: L R
Частота : 48,0 КГц
Частота кадров : 31,250 кадров/сек (1536 spf)
Метод сжатия : С потерями
Размер потока : 232 Мбайт (8%)
Default : Да
Forced : Нет

pb.wtf



Скачать Холостяк по соседству через торрент http://img12.lostpic.net/2018/03/16/8c77826bd9cf2346780709f9152e5256.jpg Скачать фильм Холостяк по соседству через торрент бесплантно в хорошем качестве Описание: Мирную жизнь Алекс и Гэвина нарушает их новый сосед, Дональд. Он хорошо воспитан, дружелюбен и всегда готов помочь. Но его ... 10 10 3
Торрент: Зарегистрирован [2018-03-16 09:34] · скачан: 48 раз
Статус: T временная
Размер: 2.85 GB
Как cкачать? Как скачать Холостяк по соседству через торрент | qTorrent

% Раздел Тема Автор DL S | L
T Фильмы (мультфильмы) cо спонсором показа (Новинки AVI/MKV) [ 1.37 GB ] Холостяк по соседству / The Bachelor Next Door [2017 HDTVRip] MVO ["Синема УС"] bober100 Скачать
1 | 0

28-11-2019 20:33  

Отключить всю рекламу на сайте

    Дорогой пользователь! Огромная просьба, поблагодарите релизера, оцените раздачу и оставьте свои комментарий, если Вы скачали Холостяк по соседству через торрент бесплатно! Внесите свою лепту в развитие PiratBit!
    Комментировать посты могут только пользователи прошедшие не сложную регистрацию
    Показать сообщения:    

    Холостяк по соседству через торрент
    Скачать бесплатно Холостяк по соседству
    Холостяк по соседству скачать торрент
    Холостяк по соседству смотреть онлайн
    Cкачать фильм Холостяк по соседству бесплатно
    Холостяк по соседству скачать торрент в хорошем качестве
    Холостяк по соседству смотреть онлайн бесплатно в хорошем качестве


    Вы не можете начинать темы
    Вы не можете отвечать на сообщения
    Вы не можете редактировать свои сообщения
    Вы не можете удалять свои сообщения
    Вы не можете голосовать в опросах
    Вы не можете прикреплять файлы к сообщениям
    Вы можете скачивать файлы