Ссылка на приватное зеркало всего за 1$. Внимание количество ограничено!!!

OK

1+1

iTunes

мы

OK

1

WEB-DLRip

Джокер

Пифагор

Ведьмак / The Witcher сериал

Лицензия

ПШазам

ОК

Оно 2

iTunes

30
pack

Вам бонус

ВАЖНО

!!Акция!!

Alien_RageХит недели

RePack

Resident Evil 21

ИГРА 18+

pack

RePack

jed

!!Акция!!

Alien_Rage

RePack

fifa19

RePack

Assassins Creed: Odyssey

RePack

NEED FOR SPEED™ PAYBACK

4 сезон

9 сезон

Бесстыжие 9 сезон

Все сериалы

все сериалы на PB.wtf

RePack

FAR CRY 5
  

Смертельное соседство / A Deadly View (Эндрю Кумек) [2018, триллер, WEB-DL 720p] MVO ["Синема УС"] pb.wtf

Смертельное соседство через торрент pb.wtf

Размер: 3.25 GB | Добавлен: 1 год 10 мес. назад | Торрент скачан:37 раз
Скачать  

16-03-2018 12:07 Смертельное соседство Скачать торрент  

Смертельное соседство / A Deadly ViewГод выпуска: 2018
Страна: Канада
Жанр: триллер
Продолжительность: 01:27:43
Перевод: Любительский (многоголосый) | ["Синема УС"]
Субтитры: отсутствуют

Режиссер: Эндрю Кумек

rating

В ролях:

Сара Митич, Кристиан Бруун, Нил Уайтли, Бриджитт Кингсли, Нола Аугустсон, Лиза Нортон, Эдриэнн Меррелл, Джим Чад, Мануэла Касинья

Описание:

Будущая мама, Рэйчел, переезжает с мужем в тихий пригород в надежде на спокойную и счастливую жизнь. Вскоре она замечает, что у соседей происходит странная активность, особенно у одной молодой и одинокой соседки, которая становится в глазах Рэйчел опасным человеком. Героиня хочет уехать, но муж не верит в ее опасения и ждет рождения ребенка. Наступает критический момент, когда жизни Рэйчел угрожает опасность, и только она сама сможет себе помочь.

Качество: WEB-DL 720p
Формат: MKV

Видео: 4813 Kb/s, 1280x720
Аудио#1: Русский, (AC3, 2 ch, 384 Кбит/с)
скриншот  скриншот  скриншот  

Общее
Уникальный идентификатор : 251066752557284059242858337402002012661 (0xBCE1B29B1781A7D4865CD943B72AF9F5)
Полное имя : D:\A Deadly View 2018.P.WEB-DL.72Op_KOSHARA.mkv
Формат : Matroska
Версия формата : Version 2
Размер файла : 3,25 Гбайт
Продолжительность : 1 ч. 27 м.
Режим общего битрейта : Переменный
Общий поток : 5303 Кбит/сек
Дата кодирования : UTC 2018-03-14 14:38:06
Программа кодирования : mkvmerge v8.3.0 ('Over the Horizon') 64bit
Библиотека кодирования : libebml v1.3.1 + libmatroska v1.4.2

Видео
Идентификатор : 1
Формат : AVC
Формат/Информация : Advanced Video Codec
Профиль формата : High@L4.1
Параметр CABAC формата : Да
Параметр RefFrames формата : 4 кадра
Идентификатор кодека : V_MPEG4/ISO/AVC
Продолжительность : 1 ч. 27 м.
Вид битрейта : Переменный
Битрейт : 4813 Кбит/сек
Максимальный битрейт : 75,0 Мбит/сек
Ширина : 1280 пикселей
Высота : 714 пикселей
Соотношение сторон : 16:9
Режим частоты кадров : Постоянный
Частота кадров : 23,976 (24000/1001) кадра/сек
Стандарт вещания : Component
Цветовое пространство : YUV
Субдискретизация насыщенности : 4:2:0
Битовая глубина : 8 бит
Тип развёртки : Прогрессивная
Бит/(Пиксели*Кадры) : 0.220
Размер потока : 2,95 Гбайт (91%)
Default : Да
Forced : Нет
Цветовой диапазон : Limited
Основные цвета : BT.709
Характеристики трансфера : BT.709
Коэффициенты матрицы : BT.709

Аудио
Идентификатор : 2
Формат : AC-3
Формат/Информация : Audio Coding 3
Расширение режима : CM (complete main)
Параметр Endianness формата : Big
Идентификатор кодека : A_AC3
Продолжительность : 1 ч. 27 м.
Вид битрейта : Постоянный
Битрейт : 384 Кбит/сек
Каналы : 2 канала
Расположение каналов : Front: L R
Частота : 48,0 КГц
Частота кадров : 31,250 кадров/сек (1536 spf)
Метод сжатия : С потерями
Размер потока : 241 Мбайт (7%)
Default : Да
Forced : Нет

pb.wtf



Скачать Смертельное соседство через торрент http://img12.lostpic.net/2018/03/16/4ae5a304addd332a2a9181240641fe96.jpg Скачать фильм Смертельное соседство через торрент бесплантно в хорошем качестве Описание: Будущая мама, Рэйчел, переезжает с мужем в тихий пригород в надежде на спокойную и счастливую жизнь. Вскоре она замечает, что у ... 10 10 3
Торрент: Зарегистрирован [2018-03-16 12:07] · скачан: 37 раз
Статус: T временная
Размер: 3.25 GB
Как cкачать? Как скачать Смертельное соседство через торрент | qTorrent

% Раздел Тема Автор DL S | L
T Фильмы (мультфильмы) cо спонсором показа (Новинки AVI/MKV) [ 1.37 GB ] Смертельное соседство / A Deadly View [2018 WEB-DLRip] MVO ["Синема УС"] bober100 Скачать
1 | 0

28-11-2019 20:33  

Отключить всю рекламу на сайте

16-03-2018 14:19 Смертельное соседство Скачать торрент  

сюжетец для триллера вроде ничего.оценки только не ахти.pb.wtf



    Дорогой пользователь! Огромная просьба, поблагодарите релизера, оцените раздачу и оставьте свои комментарий, если Вы скачали Смертельное соседство через торрент бесплатно! Внесите свою лепту в развитие PiratBit!
    Комментировать посты могут только пользователи прошедшие не сложную регистрацию
    Показать сообщения:    

    Смертельное соседство через торрент
    Скачать бесплатно Смертельное соседство
    Смертельное соседство скачать торрент
    Смертельное соседство смотреть онлайн
    Cкачать фильм Смертельное соседство бесплатно
    Смертельное соседство скачать торрент в хорошем качестве
    Смертельное соседство смотреть онлайн бесплатно в хорошем качестве


    Вы не можете начинать темы
    Вы не можете отвечать на сообщения
    Вы не можете редактировать свои сообщения
    Вы не можете удалять свои сообщения
    Вы не можете голосовать в опросах
    Вы не можете прикреплять файлы к сообщениям
    Вы можете скачивать файлы