Ссылка на приватное зеркало всего за 1$. Внимание количество ограничено!!!

iTunes

1+1

iTunes

мы

WEB-DL

1

iTunes

Чернобыль

iTunes

Ральф против интернета

Лицензия

ПШазам

Лицензия

Оно 2

Лицензия

30
pack

Вам бонус

ВАЖНО

!!Акция!!

Alien_RageХит недели

RePack

Resident Evil 21

ИГРА 18+

pack

RePack

jed

!!Акция!!

Alien_Rage

RePack

fifa19

RePack

Assassins Creed: Odyssey

RePack

NEED FOR SPEED™ PAYBACK

3 сезон

9 сезон

Бесстыжие 9 сезон

Все сериалы

все сериалы на PB.wtf

RePack

FAR CRY 5
Ребята, катастрофически не хватает 1900р. для оплаты серверов за Октябрь (всвязи с блокировками трафик упал в 3 раза), 1-2р., выручайте.
  

Незаменимый ты / Irreplaceable You (Стефани Коун / Stephanie Cone) [2018, драма, мелодрама, комедия, WEBRip-AVC] MVO [HDRezka studio] pb.wtf

Незаменимый ты через торрент pb.wtf

Раздают: 1 [ 0 KB/s ]
Размер: 1.42 GB | Добавлен: 1 год 8 мес. назад | Торрент скачан:460 раз
Скачать  

16-03-2018 12:26 Незаменимый ты Скачать торрент  

Незаменимый ты
Irreplaceable You

«Don't focus on what if. Focus on what is»


Страна: США
Жанр: драма, мелодрама, комедия
Год выпуска: 2018
Продолжительность: 01:36:22

Перевод: Профессиональный (многоголосый, закадровый) [HDRezka studio]
Субтитры: английские (полные)
Оригинальная аудиодорожка: английский

Режиссер: Стефани Коун / Stephanie Cone

В ролях: Гугу Эмбата-Ро, Кейт МакКиннон, Клер Холт, Михил Хаушман, Джеки Уивер, Кристофер Уокен, Стив Куган, Гэйл Ранкин, Тамара Тюни, Джесси Эннис, Брайан Тайри Генри, Гленн Флешлер

Описание:
Лента расскажет о двух непохожих друзьях детства, Эбби и Сэме, которые были неразлучны с восьмилетнего возраста. Оказавшись перед лицом неминуемого расставания, Эбби учит Сэма, как нужно жить, пока Сэм учит Эбби, как умирать.



Релиз:

Автор рипа: stalkerok | Моя группа

Сэмпл

Качество видео: WEBRip-AVC [Исходник: Irreplaceable.You.(2018).1080p.NF.WEB-DL.DD5.1.SUBS.x264.EMLHDTEAM]
Формат видео: MKV
Видео кодек: AVC
Аудио кодек: AC3
Видео: AVC, 1537 Кбит/сек, 1130x472 (2.40:1), 23,976 кадр/сек
Аудио №1: AC3, 192 Кбит/сек, 48 КГц, 2.0 - русский
Аудио №2: AC3, 384 Кбит/сек, 48 КГц, 5.1 - английский

---[Information] [16.03.2018 14:24:16] x264 [info]: frame I:1004 Avg QP:13.90 size: 55737
---[Information] [16.03.2018 14:24:16] x264 [info]: frame P:26300 Avg QP:15.60 size: 19994
---[Information] [16.03.2018 14:24:16] x264 [info]: frame B:111329 Avg QP:18.19 size: 4754

General
Unique ID : 196099170376859825190633497829492507454 (0x93875390E7BF72F6B7FB34688DB9C33E)
Complete name : V:\!Rips\Irreplaceable You (2018)\Irreplaceable.You.2018.WEBRip-AVC.RUS.ENG.stalkerok.new-team.mkv
Format : Matroska
Format version : Version 4 / Version 2
File size : 1.42 GiB
Duration : 1 h 36 min
Overall bit rate : 2 115 kb/s
Movie name : Irreplaceable You (2018) (Rip by stalkerok)
Encoded date : UTC 2018-03-16 12:06:29
Writing application : mkvmerge v8.6.1 ('Flying') 64bit
Writing library : libebml v1.3.3 + libmatroska v1.4.4

Video
ID : 1
Format : AVC
Format/Info : Advanced Video Codec
Format profile : High@L4.1
Format settings, CABAC : Yes
Format settings, ReFrames : 14 frames
Codec ID : V_MPEG4/ISO/AVC
Duration : 1 h 36 min
Bit rate : 1 537 kb/s
Width : 1 130 pixels
Height : 472 pixels
Display aspect ratio : 2.40:1
Frame rate mode : Constant
Frame rate : 23.976 (24000/1001) FPS
Color space : YUV
Chroma subsampling : 4:2:0
Bit depth : 8 bits
Scan type : Progressive
Bits/(Pixel*Frame) : 0.120
Stream size : 1.03 GiB (73%)
Title : Irreplaceable You (2018) (Rip by stalkerok)
Writing library : x264 core 155 r2901 7d0ff22
Encoding settings : cabac=1 / ref=14 / deblock=1:-3:-2 / analyse=0x3:0x133 / me=umh / subme=11 / psy=1 / psy_rd=1.00:0.00 / mixed_ref=1 / me_range=32 / chroma_me=1 / trellis=2 / 8x8dct=1 / cqm=0 / deadzone=21,11 / fast_pskip=0 / chroma_qp_offset=-2 / threads=12 / lookahead_threads=3 / sliced_threads=0 / nr=0 / decimate=1 / interlaced=0 / bluray_compat=0 / constrained_intra=0 / bframes=15 / b_pyramid=2 / b_adapt=2 / b_bias=0 / direct=3 / weightb=1 / open_gop=0 / weightp=2 / keyint=240 / keyint_min=23 / scenecut=40 / intra_refresh=0 / rc_lookahead=60 / rc=crf / mbtree=0 / crf=17.5 / qcomp=0.65 / qpmin=0 / qpmax=69 / qpstep=4 / vbv_maxrate=50000 / vbv_bufsize=62500 / crf_max=0.0 / nal_hrd=none / filler=0 / ip_ratio=1.40 / pb_ratio=1.30 / aq=3:0.85 / zones=130265,138632,q=34
Default : Yes
Forced : No

Audio #1
ID : 2
Format : AC-3
Format/Info : Audio Coding 3
Mode extension : CM (complete main)
Format settings, Endianness : Big
Codec ID : A_AC3
Duration : 1 h 36 min
Bit rate mode : Constant
Bit rate : 192 kb/s
Channel(s) : 2 channels
Channel positions : Front: L R
Sampling rate : 48.0 kHz
Frame rate : 31.250 FPS (1536 spf)
Compression mode : Lossy
Stream size : 132 MiB (9%)
Title : HDRezka studio
Language : Russian
Default : Yes
Forced : No

Audio #2
ID : 3
Format : AC-3
Format/Info : Audio Coding 3
Mode extension : CM (complete main)
Format settings, Endianness : Big
Codec ID : A_AC3
Duration : 1 h 36 min
Bit rate mode : Constant
Bit rate : 384 kb/s
Channel(s) : 6 channels
Channel positions : Front: L C R, Side: L R, LFE
Sampling rate : 48.0 kHz
Frame rate : 31.250 FPS (1536 spf)
Compression mode : Lossy
Stream size : 265 MiB (18%)
Language : English
Default : No
Forced : No

Text
ID : 4
Format : UTF-8
Codec ID : S_TEXT/UTF8
Codec ID/Info : UTF-8 Plain Text
Duration : 1 h 32 min
Bit rate : 77 b/s
Count of elements : 1702
Stream size : 52.8 KiB (0%)
Title : English
Language : English
Default : No
Forced : No
скриншот   скриншот   скриншот   скриншот   скриншот   скриншот   скриншот   скриншот  
pb.wtf



Скачать Незаменимый ты через торрент http://i6.imageban.ru/out/2017/09/18/2ff75c0c358795c5946784cc1680714d.png Скачать фильм Незаменимый ты через торрент бесплантно в хорошем качестве Описание:Лента расскажет о двух непохожих друзьях детства, Эбби и Сэме, которые были неразлучны с восьмилетнего возраста. Оказавшись перед ... 8.9 10 12
Info! Золотая раздача, скачанное не засчитывается.
Торрент: Зарегистрирован [2018-03-16 12:26] · скачан: 460 раз
Статус: √ проверено
Размер: 1.42 GB
Как cкачать? Как скачать Незаменимый ты через торрент | qTorrent

28-11-2019 20:33  

Отключить всю рекламу на сайте

31-12-2018 08:59 Незаменимый ты Скачать торрент  

интересноpb.wtf



    Дорогой пользователь! Огромная просьба, поблагодарите релизера, оцените раздачу и оставьте свои комментарий, если Вы скачали Незаменимый ты через торрент бесплатно! Внесите свою лепту в развитие PiratBit!
    Комментировать посты могут только пользователи прошедшие не сложную регистрацию
    Показать сообщения:    

    Незаменимый ты через торрент
    Скачать бесплатно Незаменимый ты
    Незаменимый ты скачать торрент
    Незаменимый ты смотреть онлайн
    Cкачать фильм Незаменимый ты бесплатно
    Незаменимый ты скачать торрент в хорошем качестве
    Незаменимый ты смотреть онлайн бесплатно в хорошем качестве


    Вы не можете начинать темы
    Вы не можете отвечать на сообщения
    Вы не можете редактировать свои сообщения
    Вы не можете удалять свои сообщения
    Вы не можете голосовать в опросах
    Вы не можете прикреплять файлы к сообщениям
    Вы можете скачивать файлы