Всегда рабочее зеркало без VPN и Proxy просто перед .vidak.icu напиши любое слово или цифру, Пример http://8gvp.vidak.icu

MVO

Лицензия

1 сезон

1

1 сезон

iTunes

1 сезон

13

1 сезон

Deluxe

pack

Рекомендуем

Пиратка

30

ВАЖНО

RePack

MK11

RePack

jed

RePack

fifa19

RePack

RDR2

RePack

NEED FOR SPEED™ PAYBACK

Кинопоиск HD

6 сезон

 Острые козырьки 6 сезон

Все сериалы

все сериалы на PB.wtf

RePack

FAR CRY 5
  
Magnet ссылка

Спасибо за вашу службу / Thank You for Your Service (Джейсон Холл) [2017, драма, военный, биография, BDRip 1080p] MVO [HDrezka Studio] pb.wtf

Спасибо за вашу службу через торрент pb.wtf

Размер: 8.51 GB | Добавлен: 4 года 3 мес. назад | Торрент скачан:301 раз
Смотреть онлайн Спасибо за вашу службу | Скачать    Ребята, помогите собрать деньги на оплату серверов!!!

16-03-2018 12:43 Спасибо за вашу службу Скачать торрент  

Спасибо за вашу службу / Thank You for Your Service

Год выпуска: 2017
Страна: США
Жанр: драма, военный, биография

Продолжительность: 01:48:59
Перевод: Профессиональный многоголосый [HDrezka Studio]
Примечание: Релиз без рекламы
Субтитры: русские (Full | студия Focs - ненормативная лексика!), английские (Full)
Режиссер: Джейсон Холл
В ролях:

Хейли Беннетт, Майлз Теллер, Джо Коул, Эми Шумер (Amanda Doster), Киша Касл-Хьюз (Alea), Керри Кехилл (Will's Mom), Кейт Лин Шейл (Bell), Эрин Майя Дарк (Tracey), Брэд Бейер (SFC James Doster), Джэйсон Уорнер Смит (VA Receptionist), Beulah Koale, Скотт Хэйз (Michael Adam Emory)
Описание:
История о трёх ветеранах иракской войны, которые возвращаются в США, но не могут снова влиться в мирную жизнь. Выжившие на линии огня, они обнаруживают себя под ударом собственных воспоминаний, способных погубить их даже в родных стенах.
Рейтинг:

MPAA: R - Лицам до 17 лет обязательно присутствие взрослого
Качество: BDRip 1080p
Формат: MKV
Видео: AVC, 1920x804 (2.40:1), 9500 kbps, 23,976 fps, 0,257 bpp
Аудио №1: русский / AC3 / 2.0 / 48 kHz / 192 kbps / |MVO|
Аудио №2: английский / DTS / 5.1 / 48 kHz / 1509 kbps / 24 bit

Общее
Уникальный идентификатор : 24220173469540489516979710821652235695 (0x1238A2BF7C131779683EF51ABC6005AF)
Полное имя : E:\Thank.you.for.your.service.2017.BDRip.1080p.MVO.mkv
Формат : Matroska
Версия формата : Version 4 / Version 2
Размер файла : 8,51 Гбайт
Продолжительность : 1 ч. 48 м.
Общий поток : 11,2 Мбит/сек
Название фильма : Thank You for Your Service (2017) BDRip 1080p MVO
Дата кодирования : UTC 2018-03-16 12:07:53
Программа кодирования : mkvmerge v21.0.0 ('Tardigrades Will Inherit The Earth') 64-bit
Библиотека кодирования : libebml v1.3.5 + libmatroska v1.4.8

Видео
Идентификатор : 1
Формат : AVC
Формат/Информация : Advanced Video Codec
Профиль формата : High@L4.1
Настройки формата : CABAC / 5 Ref Frames
Параметр CABAC формата : Да
Параметр RefFrames формата : 5 кадров
Идентификатор кодека : V_MPEG4/ISO/AVC
Продолжительность : 1 ч. 48 м.
Битрейт : 9500 Кбит/сек
Ширина : 1920 пикселей
Высота : 804 пикселя
Соотношение сторон : 2,40:1
Режим частоты кадров : Постоянный
Частота кадров : 23,976 (24000/1001) кадра/сек
Цветовое пространство : YUV
Субдискретизация насыщенности : 4:2:0
Битовая глубина : 8 бит
Тип развёртки : Прогрессивная
Бит/(Пиксели*Кадры) : 0.257
Размер потока : 7,21 Гбайт (85%)
Библиотека кодирования : x264 core 148 r2597 e86f3a1
Настройки программы : cabac=1 / ref=5 / deblock=1:0:0 / analyse=0x3:0x113 / me=umh / subme=10 / psy=1 / psy_rd=1.05:0.10 / mixed_ref=1 / me_range=48 / chroma_me=1 / trellis=2 / 8x8dct=1 / cqm=0 / deadzone=21,11 / fast_pskip=0 / chroma_qp_offset=-2 / threads=12 / lookahead_threads=1 / sliced_threads=0 / nr=0 / decimate=1 / interlaced=0 / bluray_compat=0 / constrained_intra=0 / bframes=6 / b_pyramid=2 / b_adapt=2 / b_bias=0 / direct=3 / weightb=1 / open_gop=0 / weightp=2 / keyint=250 / keyint_min=23 / scenecut=40 / intra_refresh=0 / rc=2pass / mbtree=0 / bitrate=9500 / ratetol=2.0 / qcomp=0.70 / qpmin=0 / qpmax=69 / qpstep=4 / cplxblur=20.0 / qblur=0.5 / ip_ratio=1.40 / pb_ratio=1.30 / aq=2:1.00
Default : Да
Forced : Нет

Аудио #1
Идентификатор : 2
Формат : AC-3
Формат/Информация : Audio Coding 3
Идентификатор кодека : A_AC3
Продолжительность : 1 ч. 48 м.
Вид битрейта : Постоянный
Битрейт : 192 Кбит/сек
Каналы : 2 канала
Расположение каналов : Front: L R
Частота : 48,0 КГц
Частота кадров : 31,250 кадров/сек (1536 SPF)
Битовая глубина : 16 бит
Метод сжатия : С потерями
Размер потока : 149 Мбайт (2%)
Заголовок : MVO | HDrezka Studio
Язык : Russian
ServiceKind/String : Complete Main
Default : Да
Forced : Нет

Аудио #2
Идентификатор : 3
Формат : DTS
Формат/Информация : Digital Theater Systems
Идентификатор кодека : A_DTS
Продолжительность : 1 ч. 48 м.
Вид битрейта : Постоянный
Битрейт : 1509 Кбит/сек
Каналы : 6 каналов
Расположение каналов : Front: L C R, Side: L R, LFE
Частота : 48,0 КГц
Частота кадров : 93,750 кадра/сек (512 SPF)
Битовая глубина : 24 бит
Метод сжатия : С потерями
Размер потока : 1,15 Гбайт (14%)
Заголовок : Original
Язык : English
Default : Нет
Forced : Нет

Текст #1
Идентификатор : 4
Формат : UTF-8
Идентификатор кодека : S_TEXT/UTF8
Идентификатор кодека/Информация : UTF-8 Plain Text
Продолжительность : 1 ч. 42 м.
Битрейт : 81 бит/сек
ElementCount : 1223
Размер потока : 61,4 Кбайт (0%)
Заголовок : Full | студия Focs
Язык : Russian
Default : Нет
Forced : Нет

Текст #2
Идентификатор : 5
Формат : UTF-8
Идентификатор кодека : S_TEXT/UTF8
Идентификатор кодека/Информация : UTF-8 Plain Text
Продолжительность : 1 ч. 40 м.
Битрейт : 49 бит/сек
ElementCount : 1236
Размер потока : 36,3 Кбайт (0%)
Заголовок : Full
Язык : English
Default : Нет
Forced : Нет
pb.wtf



Скачать Спасибо за вашу службу через торрент http://i101.fastpic.ru/big/2018/0316/4d/5675bf11d973f9f2e577bb40b7c8db4d.jpg Скачать, смотреть онлайн Спасибо за вашу службу бесплантно в хорошем качестве Описание: История о трёх ветеранах иракской войны, которые возвращаются в США, но не могут снова влиться в мирную жизнь. Выжившие на линии ... 10 10 6
Торрент: Зарегистрирован [2018-03-16 12:43] · скачан: 301 раз
Статус: √ проверено
Размер: 8.51 GB
Как cкачать? Как скачать Спасибо за вашу службу через торрент | UTorrent

% Раздел Тема Автор DL S | L
Фильмы 2017 [DVDrip, WEB-DLRip, HDrip] (DUB, MVO) [ 2.18 GB ] Спасибо за вашу службу / Thank You for Your Service [2017 военный биография BDRip] - [официальный] Twi7ter Скачать
1 | 0
Фильмы 2017 [DVDrip, WEB-DLRip, HDrip] (DUB, MVO) [ 1.46 GB ] Спасибо за вашу службу / Thank You for Your Service [2017 военный биография BDRip] - [официальный] Twi7ter Скачать
3 | 0
Фильмы 2017 [DVDrip, WEB-DLRip, HDrip] (DUB, MVO) [ 1.46 GB ] Спасибо за вашу службу / Thank You for Your Service [2017 военный биография BDRip] DUB bober100 Скачать
1 | 0
R.G. Resident & PiratVoice - Фильмы, Видео [ 1.45 GB ] Спасибо за вашу службу / Thank You for Your Service [2017 военный биография HDRip от R.G. Resident] MVO [HDrezka Studio] -Lexx- Скачать
1 | 0
Фильмы с украинским озвучиванием [ 1.27 GB ] Спасибо за вашу службу / Thank You for Your Service [2017 военный биография BDRip] [Ukr DUB] killermax2013 Скачать
1 | 0
T Релизы по Парсеру [Игры, Сериалы и Фильмы и другое...] [ 3.42 GB ] Спасибо за вашу службу / Thank You for Your Service [2017 военный биография BDRip 720p] [MVO] killermax2013 Скачать
1 | 0
Фильмы без перевода [ 3.81 GB ] Спасибо за вашу службу / Thank You for Your Service [2017 военный биография WEB-DL 1080p] [ENG] killermax2013 Скачать
1 | 0

28-11-2019 20:33  

Отключить всю рекламу на сайте

16-03-2018 14:06 Спасибо за вашу службу Скачать торрент  

pb.wtf





Последний раз редактировалось: SASHA66 (2018-03-17 17:21), всего редактировалось 1 раз

16-03-2018 17:02 Спасибо за вашу службу Скачать торрент  

SASHA66 писал(а):

америкосовским горе-героям воякам да-увидел издали врага-надо года два реабилитации.обосрался .а потом постоянно на шугняках.надо лечить.куда прут пиндосовцы не понятно.

ты как-то так предложения строишь, что не понятноpb.wtf



16-03-2018 18:53 Спасибо за вашу службу Скачать торрент  

это ботpb.wtf



17-03-2018 13:36 Спасибо за вашу службу Скачать торрент  

У наших сотрудников МВД кто в Чечню командируется тоже крышак сносит, профессиональная деформация.pb.wtf



24-03-2018 13:03 Спасибо за вашу службу Скачать торрент  

Прекрасный фильм.pb.wtf



    Дорогой пользователь! Огромная просьба, поблагодарите релизера, оцените раздачу и оставьте свои комментарий, если Вы скачали Спасибо за вашу службу через торрент бесплатно!
    Комментировать посты могут только пользователи прошедшие не сложную регистрацию
    Показать сообщения:    

    Спасибо за вашу службу через торрент
    Скачать бесплатно Спасибо за вашу службу
    Спасибо за вашу службу скачать торрент
    Спасибо за вашу службу смотреть онлайн
    Cкачать фильм Спасибо за вашу службу бесплатно
    Спасибо за вашу службу скачать торрент в хорошем качестве
    Спасибо за вашу службу смотреть онлайн бесплатно в хорошем качестве


    Вы не можете начинать темы
    Вы не можете отвечать на сообщения
    Вы не можете редактировать свои сообщения
    Вы не можете удалять свои сообщения
    Вы не можете голосовать в опросах
    Вы не можете прикреплять файлы к сообщениям
    Вы можете скачивать файлы