Всегда рабочее зеркало без VPN и Proxy просто перед .vidak.icu напиши любое слово или цифру, Пример http://qu9r.vidak.icu

MVO

Лицензия

1 сезон

1

1 сезон

iTunes

1 сезон

13

1 сезон

Deluxe

pack

Рекомендуем

Пиратка

30

ВАЖНО

RePack

MK11

RePack

jed

RePack

fifa19

RePack

RDR2

RePack

NEED FOR SPEED™ PAYBACK

Кинопоиск HD

6 сезон

 Острые козырьки 6 сезон

Все сериалы

все сериалы на PB.wtf

RePack

FAR CRY 5
  
Magnet ссылка

Спасибо за вашу службу / Thank You for Your Service (Джейсон Холл) [2017, драма, военный, биография, HDRip от R.G. Resident] MVO [HDrezka Studio] pb.wtf

Спасибо за вашу службу через торрент pb.wtf

Размер: 1.45 GB | Добавлен: 4 года 3 мес. назад | Торрент скачан:364 раза
Смотреть онлайн Спасибо за вашу службу | Скачать    Ребята, помогите собрать деньги на оплату серверов!!!

16-03-2018 13:10 Спасибо за вашу службу Скачать торрент  

Спасибо за вашу службу / Thank You for Your Service

Год выпуска: 2017
Страна: США
Жанр: драма, военный, биография

Продолжительность: 01:48:59
Перевод: Профессиональный многоголосый [HDrezka Studio]
Примечание: Релиз без рекламы
Режиссер: Джейсон Холл
В ролях:

Хейли Беннетт, Майлз Теллер, Джо Коул, Эми Шумер (Amanda Doster), Киша Касл-Хьюз (Alea), Керри Кехилл (Will's Mom), Кейт Лин Шейл (Bell), Эрин Майя Дарк (Tracey), Брэд Бейер (SFC James Doster), Джэйсон Уорнер Смит (VA Receptionist), Beulah Koale, Скотт Хэйз (Michael Adam Emory)
Описание:
История о трёх ветеранах иракской войны, которые возвращаются в США, но не могут снова влиться в мирную жизнь. Выжившие на линии огня, они обнаруживают себя под ударом собственных воспоминаний, способных погубить их даже в родных стенах.
Рейтинг:

MPAA: R - Лицам до 17 лет обязательно присутствие взрослого
Качество: HDRip
Формат: AVI
Видео: XviD, 720x304 (2.35:1), 1707 kbps, 23,976 fps, 0,325 bpp
Аудио: AC3 / 2.0 / 48 kHz / 192 kbps /

General
Complete name : E:\Thank.you.for.your.service.2017.HDRip.MVO.R.G.Resident.avi
Format : AVI
Format/Info : Audio Video Interleave
File size : 1.45 GiB
Duration : 1 h 48 min
Overall bit rate : 1 909 kb/s
Writing application : VirtualDubModRus 1.5.10.2 (build 2542/release)
Writing library : VirtualDubMod build 2542/release

Video
ID : 0
Format : MPEG-4 Visual
Format profile : Advanced Simple@L5
Format settings, BVOP : 2
Format settings, QPel : No
Format settings, GMC : No warppoints
Format settings, Matrix : Custom
Codec ID : XVID
Codec ID/Hint : XviD
Duration : 1 h 48 min
Bit rate : 1 708 kb/s
Width : 720 pixels
Height : 304 pixels
Display aspect ratio : 2.35:1
Frame rate : 23.976 (24000/1001) FPS
Color space : YUV
Chroma subsampling : 4:2:0
Bit depth : 8 bits
Scan type : Progressive
Compression mode : Lossy
Bits/(Pixel*Frame) : 0.325
Stream size : 1.30 GiB (89%)
Writing library : XviD 73

Audio
ID : 1
Format : AC-3
Format/Info : Audio Coding 3
Mode extension : CM (complete main)
Format settings, Endianness : Big
Codec ID : 2000
Duration : 1 h 48 min
Bit rate mode : Constant
Bit rate : 192 kb/s
Channel(s) : 2 channels
Channel positions : Front: L R
Sampling rate : 48.0 kHz
Frame rate : 31.250 FPS (1536 spf)
Compression mode : Lossy
Stream size : 149 MiB (10%)
Alignment : Split accross interleaves
Interleave, duration : 42 ms (1.00 video frame)
Interleave, preload duration : 500 ms
pb.wtf



Скачать Спасибо за вашу службу через торрент http://i77.fastpic.ru/big/2016/0417/a7/808a646271c761f7c7d87df3d366b3a7.png Скачать, смотреть онлайн Спасибо за вашу службу бесплантно в хорошем качестве Описание: История о трёх ветеранах иракской войны, которые возвращаются в США, но не могут снова влиться в мирную жизнь. Выжившие на линии ... 8.6 10 15
Info! Золотая раздача, скачанное не засчитывается.
Торрент: Зарегистрирован [2018-03-16 13:10] · скачан: 364 раз
Статус: √ проверено
Размер: 1.45 GB
Как cкачать? Как скачать Спасибо за вашу службу через торрент | UTorrent

% Раздел Тема Автор DL S | L
Фильмы 2017 [DVDrip, WEB-DLRip, HDrip] (DUB, MVO) [ 2.18 GB ] Спасибо за вашу службу / Thank You for Your Service [2017 военный биография BDRip] - [официальный] Twi7ter Скачать
1 | 0
Фильмы 2017 [DVDrip, WEB-DLRip, HDrip] (DUB, MVO) [ 1.46 GB ] Спасибо за вашу службу / Thank You for Your Service [2017 военный биография BDRip] - [официальный] Twi7ter Скачать
3 | 0
Фильмы 2017 [DVDrip, WEB-DLRip, HDrip] (DUB, MVO) [ 1.46 GB ] Спасибо за вашу службу / Thank You for Your Service [2017 военный биография BDRip] DUB bober100 Скачать
1 | 0
Фильмы [HD 720p, 1080p] (Хороший звук DUB, MVO) [ 8.51 GB ] Спасибо за вашу службу / Thank You for Your Service [2017 военный биография BDRip 1080p] MVO [HDrezka Studio] -Lexx- Скачать
1 | 0
Фильмы с украинским озвучиванием [ 1.27 GB ] Спасибо за вашу службу / Thank You for Your Service [2017 военный биография BDRip] [Ukr DUB] killermax2013 Скачать
1 | 0
T Релизы по Парсеру [Игры, Сериалы и Фильмы и другое...] [ 3.42 GB ] Спасибо за вашу службу / Thank You for Your Service [2017 военный биография BDRip 720p] [MVO] killermax2013 Скачать
1 | 0
Фильмы без перевода [ 3.81 GB ] Спасибо за вашу службу / Thank You for Your Service [2017 военный биография WEB-DL 1080p] [ENG] killermax2013 Скачать
1 | 0

28-11-2019 20:33  

Отключить всю рекламу на сайте

16-03-2018 13:42 Спасибо за вашу службу Скачать торрент  

-Lexx-, на мегого есть этот фильм, у меня стоит 4 бел рубля)pb.wtf



16-03-2018 14:43 Спасибо за вашу службу Скачать торрент  

sokol_ok, Thank you for Your Information pb.wtf



16-03-2018 14:57 Спасибо за вашу службу Скачать торрент  

-Lexx-, я к тому, что если в iTunes появляется новинка её тут же покупают и выкладывают, а о существовании таких ресурсов как MEGOGO или IVI похоже все забыли)
Там очень много новинок лежит.pb.wtf



16-03-2018 15:38 Спасибо за вашу службу Скачать торрент  

sokol_ok, да я понял.. но покупками заниматься не готов.pb.wtf



17-03-2018 11:39 Спасибо за вашу службу Скачать торрент  

sokol_ok, pb.wtf



03-04-2018 10:50 Спасибо за вашу службу Скачать торрент  

спасибо :)))pb.wtf



    Дорогой пользователь! Огромная просьба, поблагодарите релизера, оцените раздачу и оставьте свои комментарий, если Вы скачали Спасибо за вашу службу через торрент бесплатно!
    Комментировать посты могут только пользователи прошедшие не сложную регистрацию
    Показать сообщения:    

    Спасибо за вашу службу через торрент
    Скачать бесплатно Спасибо за вашу службу
    Спасибо за вашу службу скачать торрент
    Спасибо за вашу службу смотреть онлайн
    Cкачать фильм Спасибо за вашу службу бесплатно
    Спасибо за вашу службу скачать торрент в хорошем качестве
    Спасибо за вашу службу смотреть онлайн бесплатно в хорошем качестве


    Вы не можете начинать темы
    Вы не можете отвечать на сообщения
    Вы не можете редактировать свои сообщения
    Вы не можете удалять свои сообщения
    Вы не можете голосовать в опросах
    Вы не можете прикреплять файлы к сообщениям
    Вы можете скачивать файлы