Ссылка на приватное зеркало всего за 1$. Внимание количество ограничено!!!

iTunes

iTunes

iTunes

1

iTunes

iTunes

iTunes

WEBRip

iTunes

30
pack

$ от Little Big

ВАЖНО

!!Акция!!

Alien_RageХит недели

RePack

Resident Evil 21

ИГРА 18+

pack

RePack

jed

!!Акция!!

Alien_Rage

RePack

fifa19

RePack

Assassins Creed: Odyssey

RePack

NEED FOR SPEED™ PAYBACK

4 сезон

9 сезон

Бесстыжие 9 сезон

Все сериалы

все сериалы на PB.wtf

RePack

FAR CRY 5
  

Тихие воды / Тихий Омут / Stillwater (Нино Альди) [2018, триллер, детектив, WEB-DL 720p] MVO ["Синема УС"] pb.wtf

Тихие воды через торрент pb.wtf

Размер: 3.22 GB | Добавлен: 2 года 4 мес. назад | Торрент скачан:84 раза
Скачать  

16-03-2018 16:15 Тихие воды Скачать торрент  

Тихие воды / Тихий Омут / StillwaterГод выпуска: 2018
Страна: США
Жанр: триллер, детектив
Продолжительность: 01:34:33
Перевод: Любительский (многоголосый) | ["Синема УС"]
Субтитры: отсутствуют

Режиссер: Нино Альди

rating

В ролях:

Карлена Бритч, Тайлер Риттер, Эрик Майкл Рой, Пол Элиа, Энтони Дженсен, Трэвис Квентин Янг, Майк Фой, Нино Альди

Описание:

Шестеро школьных друзей решают встретиться старой компанией и провести выходные у озера, но встреча принимает неожиданный оборот, когда одного из друзей находят на утро мертвым. Все пытаются выяснить, кто и зачем это мог сделать, но одно ясно точно: убийца среди них.

Качество: WEB-DL 720p
Формат: MKV
Видео кодек: H.264
Аудио кодек: AC3

Видео: 4487 Kb/s, 1280x536
Аудио#1: Русский, (AC3, 2 ch, 384 Кбит/с)
скриншот  скриншот  скриншот  

Общее
Уникальный идентификатор : 195944384548102719921279392432578986420 (0x9369840914D99E62BC77DB8028F181B4)
Полное имя : D:\Stillwater.2018.P.WEB-DL.72Op_KOSHARA.mkv
Формат : Matroska
Версия формата : Version 2
Размер файла : 3,22 Гбайт
Продолжительность : 1 ч. 34 м.
Режим общего битрейта : Переменный
Общий поток : 4873 Кбит/сек
Дата кодирования : UTC 2018-03-14 04:06:24
Программа кодирования : mkvmerge v8.3.0 ('Over the Horizon') 64bit
Библиотека кодирования : libebml v1.3.1 + libmatroska v1.4.2

Видео
Идентификатор : 1
Формат : AVC
Формат/Информация : Advanced Video Codec
Профиль формата : High@L4.1
Параметр CABAC формата : Да
Параметр RefFrames формата : 4 кадра
Идентификатор кодека : V_MPEG4/ISO/AVC
Продолжительность : 1 ч. 34 м.
Вид битрейта : Переменный
Битрейт : 4487 Кбит/сек
Максимальный битрейт : 5000 Кбит/сек
Ширина : 1280 пикселей
Высота : 536 пикселей
Соотношение сторон : 2,40:1
Режим частоты кадров : Постоянный
Частота кадров : 23,976 (24000/1001) кадра/сек
Стандарт вещания : Component
Цветовое пространство : YUV
Субдискретизация насыщенности : 4:2:0
Битовая глубина : 8 бит
Тип развёртки : Прогрессивная
Бит/(Пиксели*Кадры) : 0.267
Размер потока : 2,90 Гбайт (90%)
Default : Да
Forced : Нет
Цветовой диапазон : Limited
Основные цвета : BT.709
Характеристики трансфера : BT.709
Коэффициенты матрицы : BT.709

Аудио
Идентификатор : 2
Формат : AC-3
Формат/Информация : Audio Coding 3
Расширение режима : CM (complete main)
Параметр Endianness формата : Big
Идентификатор кодека : A_AC3
Продолжительность : 1 ч. 34 м.
Вид битрейта : Постоянный
Битрейт : 384 Кбит/сек
Каналы : 2 канала
Расположение каналов : Front: L R
Частота : 48,0 КГц
Частота кадров : 31,250 кадров/сек (1536 spf)
Метод сжатия : С потерями
Размер потока : 260 Мбайт (8%)
Default : Да
Forced : Нет

pb.wtf



Скачать Тихие воды через торрент http://img12.lostpic.net/2018/03/16/5769a086b261ce3cd9da32e1a90fba25.jpg Скачать фильм Тихие воды через торрент бесплантно в хорошем качестве Описание: Шестеро школьных друзей решают встретиться старой компанией и провести выходные у озера, но встреча принимает неожиданный оборот, ... 10 10 2
Торрент: Зарегистрирован [2018-03-16 16:15] · скачан: 84 раз
Статус: T временная
Размер: 3.22 GB
Как cкачать? Как скачать Тихие воды через торрент | qTorrent

% Раздел Тема Автор DL S | L
T Фильмы (мультфильмы) cо спонсором показа (Новинки AVI/MKV) [ 1.36 GB ] Тихие воды / Тихий Омут / Stillwater [2018 WEB-DLRip] MVO ["Синема УС"] bober100 Скачать
1 | 0

28-11-2019 20:33  

Отключить всю рекламу на сайте

18-03-2018 02:50 Тихие воды Скачать торрент  

скучноватый фильм получился.концовка интересная.pb.wtf



    Дорогой пользователь! Огромная просьба, поблагодарите релизера, оцените раздачу и оставьте свои комментарий, если Вы скачали Тихие воды через торрент бесплатно! Внесите свою лепту в развитие PiratBit!
    Комментировать посты могут только пользователи прошедшие не сложную регистрацию
    Показать сообщения:    

    Тихие воды через торрент
    Скачать бесплатно Тихие воды
    Тихие воды скачать торрент
    Тихие воды смотреть онлайн
    Cкачать фильм Тихие воды бесплатно
    Тихие воды скачать торрент в хорошем качестве
    Тихие воды смотреть онлайн бесплатно в хорошем качестве


    Вы не можете начинать темы
    Вы не можете отвечать на сообщения
    Вы не можете редактировать свои сообщения
    Вы не можете удалять свои сообщения
    Вы не можете голосовать в опросах
    Вы не можете прикреплять файлы к сообщениям
    Вы можете скачивать файлы