Ссылка на приватное зеркало нашего сайта всего за 1$. Внимание количество ограничено!!!

2 сезон

iTunes

1 сезон

1

2 сезон

2 сезон

iTunes

1 сезон

RePack

30

Ultimate

ВАЖНО

ИГРА 18+

pack

RePack

MK11
pack

Забери бонус

RePack

jed

!!Акция!!

Alien_Rage

RePack

fifa19

RePack

Assassins Creed: Odyssey

RePack

NEED FOR SPEED™ PAYBACK

4 сезон

9 сезон

Бесстыжие 9 сезон

Все сериалы

все сериалы на PB.wtf

RePack

FAR CRY 5
  

Сплошной отстой! / Everything Sucks! / Сезон: 1 / Серии: 1-10 из 10 (Ри Руссо-Янг) [2018, комедия, WEBRip] MVO [Jaskier] pb.wtf

Сплошной отстой! через торрент pb.wtf

Размер: 2.94 GB | Добавлен: 2 года 8 мес. назад | Торрент скачан:22 раза
Скачать  

16-03-2018 17:32 Сплошной отстой! Скачать торрент  

Сплошной отстой! / Everything Sucks!Год выпуска: 2018
Страна: США
Жанр: комедия
Продолжительность: ~00:22:00
Перевод: Профессиональный многоголосый | Jaskier
Субтитры: отсутствуют

Режиссер: Ри Руссо-Янг

rating

В ролях:

Патрик Дарро, Пейтон Кеннеди, Рио Манджини, Сидни Свини, Макс Хаскинс, Николь МакКалло

Описание:

События разворачиваются в маленьком городке в Орегоне образца 1996 года. Ученики одной средней школы объединяются для съёмок фильма, чтобы хоть как-то пережить скучные школьные будни.

Качество: WEBRip
Формат: AVI
Видео кодек: XviD
Аудио кодек: MP3

Видео: XviD, ~ 1500 Кбит/с, 720x400
Аудио#1: Русский (MP3, 2 ch, 128 Кбит/с)
Аудио#2: английский (MP3, 2 ch, 128 Кбит/с)
скриншот  скриншот  скриншот  

Общее
Полное имя : D:\Everything Sucks. Season 1 (WEBRip l 400p l Jaskier)\Everything.Sucks.S01E01.WEBRip.Rus.Eng.Jaskier.avi
Формат : AVI
Формат/Информация : Audio Video Interleave
Размер файла : 301 Мбайт
Продолжительность : 23 м. 57 с.
Общий поток : 1754 Кбит/сек
Программа кодирования : VirtualDubMod 1.5.10.3 | www.virtualdub-fr.org || (build 2550/release)
Библиотека кодирования : VirtualDubMod build 2550/release

Видео
Идентификатор : 0
Формат : MPEG-4 Visual
Профиль формата : Advanced Simple@L5
Параметр BVOP формата : 1
Параметр QPel формата : Нет
Параметр GMC формата : Без точки перехода
Параметр матрицы формата : Default (MPEG)
Идентификатор кодека : XVID
Идентификатор кодека/Подсказка : XviD
Продолжительность : 23 м. 57 с.
Битрейт : 1485 Кбит/сек
Ширина : 720 пикселей
Высота : 400 пикселей
Соотношение сторон : 16:9
Частота кадров : 23,976 (23976/1000) кадра/сек
Цветовое пространство : YUV
Субдискретизация насыщенности : 4:2:0
Битовая глубина : 8 бит
Тип развёртки : Прогрессивная
Метод сжатия : С потерями
Бит/(Пиксели*Кадры) : 0.215
Размер потока : 254 Мбайт (85%)
Библиотека кодирования : XviD 73

Аудио #1
Идентификатор : 1
Формат : MPEG Audio
Версия формата : Version 1
Профиль формата : Layer 3
Режим : Joint stereo
Расширение режима : MS Stereo
Идентификатор кодека : 55
Идентификатор кодека/Подсказка : MP3
Продолжительность : 23 м. 57 с.
Вид битрейта : Постоянный
Битрейт : 128 Кбит/сек
Каналы : 2 канала
Частота : 48,0 КГц
Метод сжатия : С потерями
Размер потока : 21,9 Мбайт (7%)
Выравнивание : Соединение по промежуткам
Продолжительность промежутка : 42 мс. (1,00 видеокадр)
Время предзагрузки промежутка : 504 мс.

Аудио #2
Идентификатор : 2
Формат : MPEG Audio
Версия формата : Version 1
Профиль формата : Layer 3
Режим : Joint stereo
Расширение режима : MS Stereo
Идентификатор кодека : 55
Идентификатор кодека/Подсказка : MP3
Продолжительность : 23 м. 57 с.
Вид битрейта : Постоянный
Битрейт : 128 Кбит/сек
Каналы : 2 канала
Частота : 48,0 КГц
Метод сжатия : С потерями
Размер потока : 21,9 Мбайт (7%)
Выравнивание : Соединение по промежуткам
Продолжительность промежутка : 42 мс. (1,00 видеокадр)
Время предзагрузки промежутка : 504 мс.

pb.wtf



Скачать Сплошной отстой! через торрент http://i102.fastpic.ru/big/2018/0214/3d/87ad6b2d8d8502fb3442306b6e11a23d.png Скачать фильм Сплошной отстой! через торрент бесплантно в хорошем качестве Описание: События разворачиваются в маленьком городке в Орегоне образца 1996 года. Ученики одной средней школы объединяются для съёмок ... 10 10 3
Торрент: Зарегистрирован [2018-03-16 17:32] · скачан: 22 раз
Статус: √ проверено
Размер: 2.94 GB
Как cкачать? Как скачать Сплошной отстой! через торрент | qTorrent

% Раздел Тема Автор DL S | L
Зарубежные сериалы [ 6.67 GB ] Сплошной отстой! / Everything Sucks! / Сезон: 1 / Серии: 1-10 из 10 [2018 WEBRip 1080p] MVO [TVShows] bober100 Скачать
1 | 0
Зарубежные сериалы [ 14.15 GB ] Сплошной отстой! / Everything Sucks! / Сезон: 1 / Серии: 1-10 из 10 [2018 WEBRip 720p] MVO [Jaskier] bober100 Скачать
1 | 0
Зарубежные сериалы [ 2.93 GB ] Сплошной отстой! / Everything Sucks! / Сезон: 1 / Серии: 1-10 из 10 [2018 WEB-DLRip] MVO [NewStudio] bober100 Скачать
1 | 0

28-11-2019 20:33  

Отключить всю рекламу на сайте

    Дорогой пользователь! Огромная просьба, поблагодарите релизера, оцените раздачу и оставьте свои комментарий, если Вы скачали Сплошной отстой! через торрент бесплатно! Внесите свою лепту в развитие PiratBit!
    Комментировать посты могут только пользователи прошедшие не сложную регистрацию
    Показать сообщения:    

    Сплошной отстой! через торрент
    Скачать бесплатно Сплошной отстой!
    Сплошной отстой! скачать торрент
    Сплошной отстой! смотреть онлайн
    Cкачать фильм Сплошной отстой! бесплатно
    Сплошной отстой! скачать торрент в хорошем качестве
    Сплошной отстой! смотреть онлайн бесплатно в хорошем качестве


    Вы не можете начинать темы
    Вы не можете отвечать на сообщения
    Вы не можете редактировать свои сообщения
    Вы не можете удалять свои сообщения
    Вы не можете голосовать в опросах
    Вы не можете прикреплять файлы к сообщениям
    Вы можете скачивать файлы