Ссылка на приватное зеркало нашего сайта всего за 1$. Внимание количество ограничено!!!

2 сезон

iTunes

1 сезон

1

2 сезон

2 сезон

iTunes

1 сезон

RePack

30

Новинка

ВАЖНО

ИГРА 18+

pack

RePack

MK11
pack

Забери бонус

RePack

jed

!!Акция!!

Alien_Rage

RePack

fifa19

RePack

Assassins Creed: Odyssey

RePack

NEED FOR SPEED™ PAYBACK

4 сезон

9 сезон

Бесстыжие 9 сезон

Все сериалы

все сериалы на PB.wtf

RePack

FAR CRY 5
  

Сплошной отстой! / Everything Sucks! / Сезон: 1 / Серии: 1-10 из 10 (Ри Руссо-Янг) [2018, комедия, WEBRip 720p] MVO [Jaskier] pb.wtf

Сплошной отстой! через торрент pb.wtf

Размер: 14.15 GB | Добавлен: 2 года 8 мес. назад | Торрент скачан:16 раз
Скачать  

16-03-2018 17:36 Сплошной отстой! Скачать торрент  

Сплошной отстой! / Everything Sucks!Год выпуска: 2018
Страна: США
Жанр: комедия
Продолжительность: ~00:22:00
Перевод: Профессиональный многоголосый | Jaskier
Субтитры: отсутствуют

Режиссер: Ри Руссо-Янг

rating

В ролях:

Патрик Дарро, Пейтон Кеннеди, Рио Манджини, Сидни Свини, Макс Хаскинс, Николь МакКалло

Описание:

События разворачиваются в маленьком городке в Орегоне образца 1996 года. Ученики одной средней школы объединяются для съёмок фильма, чтобы хоть как-то пережить скучные школьные будни.

Качество: WEBRip 720p
Формат: MKV

Видео: MPEG-4 AVC, ~ 7700 Кбит/с, 1280x720
Аудио#1: Русский (AC3, 6 ch, 384 Кбит/с)
Аудио#2: английский (AC3, 6 ch, 384 Кбит/с)
скриншот   скриншот   скриншот  

Общее
Уникальный идентификатор : 191810956231566354906820222030557183266 (0x904D724906B909CEAFC5E4B5DF777D22)
Полное имя : D:\Everything Sucks. Season 1 (WEBRip l 720p l Jaskier)\Everything.Sucks.S01E01.720p.NF.DD5.1.x264-Jaskier.mkv
Формат : Matroska
Версия формата : Version 2
Размер файла : 1,45 Гбайт
Продолжительность : 23 м. 58 с.
Общий поток : 8643 Кбит/сек
Дата кодирования : UTC 2018-03-15 14:45:36
Программа кодирования : mkvmerge v7.8.0 ('River Man') 32bit built on Apr 3 2015 12:11:22
Библиотека кодирования : libebml v1.3.1 + libmatroska v1.4.2

Видео
Идентификатор : 1
Формат : AVC
Формат/Информация : Advanced Video Codec
Профиль формата : High@L4.1
Параметр CABAC формата : Да
Параметр RefFrames формата : 9 кадров
Идентификатор кодека : V_MPEG4/ISO/AVC
Продолжительность : 23 м. 58 с.
Битрейт : 7703 Кбит/сек
Ширина : 1280 пикселей
Высота : 720 пикселей
Соотношение сторон : 16:9
Режим частоты кадров : Постоянный
Частота кадров : 23,976 (24000/1001) кадра/сек
Цветовое пространство : YUV
Субдискретизация насыщенности : 4:2:0
Битовая глубина : 8 бит
Тип развёртки : Прогрессивная
Бит/(Пиксели*Кадры) : 0.349
Размер потока : 1,29 Гбайт (89%)
Библиотека кодирования : x264 core 152 r2851kMod ba24899
Настройки программы : cabac=1 / ref=9 / deblock=1:-3:-3 / analyse=0x3:0x133 / me=umh / subme=10 / psy=1 / fade_compensate=0.00 / psy_rd=1.00:0.00 / mixed_ref=1 / me_range=48 / chroma_me=1 / trellis=2 / 8x8dct=1 / cqm=0 / deadzone=21,11 / fast_pskip=0 / chroma_qp_offset=-2 / threads=12 / lookahead_threads=2 / sliced_threads=0 / nr=0 / decimate=0 / interlaced=0 / bluray_compat=0 / constrained_intra=0 / bframes=8 / b_pyramid=2 / b_adapt=2 / b_bias=0 / direct=3 / weightb=1 / open_gop=0 / weightp=2 / keyint=250 / keyint_min=23 / scenecut=40 / intra_refresh=0 / rc=crf / mbtree=0 / crf=17.0000 / qcomp=0.60 / qpmin=0 / qpmax=69 / qpstep=4 / ip_ratio=1.30 / pb_ratio=1.20 / aq=3:0.80
Язык : English
Default : Да
Forced : Нет

Аудио #1
Идентификатор : 2
Формат : AC-3
Формат/Информация : Audio Coding 3
Расширение режима : CM (complete main)
Параметр Endianness формата : Big
Идентификатор кодека : A_AC3
Продолжительность : 23 м. 58 с.
Вид битрейта : Постоянный
Битрейт : 384 Кбит/сек
Каналы : 6 каналов
Расположение каналов : Front: L C R, Side: L R, LFE
Частота : 48,0 КГц
Частота кадров : 31,250 кадров/сек (1536 spf)
Метод сжатия : С потерями
Размер потока : 65,8 Мбайт (4%)
Заголовок : Jaskier
Язык : Russian
Default : Да
Forced : Нет

Аудио #2
Идентификатор : 3
Формат : AC-3
Формат/Информация : Audio Coding 3
Расширение режима : CM (complete main)
Параметр Endianness формата : Big
Идентификатор кодека : A_AC3
Продолжительность : 23 м. 58 с.
Вид битрейта : Постоянный
Битрейт : 384 Кбит/сек
Каналы : 6 каналов
Расположение каналов : Front: L C R, Side: L R, LFE
Частота : 48,0 КГц
Частота кадров : 31,250 кадров/сек (1536 spf)
Метод сжатия : С потерями
Размер потока : 65,8 Мбайт (4%)
Язык : English
Default : Нет
Forced : Нет

pb.wtf



Скачать Сплошной отстой! через торрент http://i102.fastpic.ru/big/2018/0214/3d/87ad6b2d8d8502fb3442306b6e11a23d.png Скачать фильм Сплошной отстой! через торрент бесплантно в хорошем качестве Описание: События разворачиваются в маленьком городке в Орегоне образца 1996 года. Ученики одной средней школы объединяются для съёмок ... 10 10 3
Info! Серебряная раздача, засчитывается только 50% скачанного.
Торрент: Зарегистрирован [2018-03-16 17:36] · скачан: 16 раз
Статус: √ проверено
Размер: 14.15 GB
Как cкачать? Как скачать Сплошной отстой! через торрент | qTorrent

% Раздел Тема Автор DL S | L
Зарубежные сериалы [ 6.67 GB ] Сплошной отстой! / Everything Sucks! / Сезон: 1 / Серии: 1-10 из 10 [2018 WEBRip 1080p] MVO [TVShows] bober100 Скачать
1 | 0
Зарубежные сериалы [ 2.94 GB ] Сплошной отстой! / Everything Sucks! / Сезон: 1 / Серии: 1-10 из 10 [2018 WEBRip] MVO [Jaskier] bober100 Скачать
1 | 0
Зарубежные сериалы [ 2.93 GB ] Сплошной отстой! / Everything Sucks! / Сезон: 1 / Серии: 1-10 из 10 [2018 WEB-DLRip] MVO [NewStudio] bober100 Скачать
1 | 0

28-11-2019 20:33  

Отключить всю рекламу на сайте

    Дорогой пользователь! Огромная просьба, поблагодарите релизера, оцените раздачу и оставьте свои комментарий, если Вы скачали Сплошной отстой! через торрент бесплатно! Внесите свою лепту в развитие PiratBit!
    Комментировать посты могут только пользователи прошедшие не сложную регистрацию
    Показать сообщения:    

    Сплошной отстой! через торрент
    Скачать бесплатно Сплошной отстой!
    Сплошной отстой! скачать торрент
    Сплошной отстой! смотреть онлайн
    Cкачать фильм Сплошной отстой! бесплатно
    Сплошной отстой! скачать торрент в хорошем качестве
    Сплошной отстой! смотреть онлайн бесплатно в хорошем качестве


    Вы не можете начинать темы
    Вы не можете отвечать на сообщения
    Вы не можете редактировать свои сообщения
    Вы не можете удалять свои сообщения
    Вы не можете голосовать в опросах
    Вы не можете прикреплять файлы к сообщениям
    Вы можете скачивать файлы