Ссылка на приватное зеркало всего за 1$. Внимание количество ограничено!!!

OK

1+1

iTunes

мы

OK

1

WEB-DLRip

Джокер

Пифагор

Ведьмак / The Witcher сериал

iTunes

ПШазам

ОК

Оно 2

iTunes

30
pack

Вам бонус

ВАЖНО

!!Акция!!

Alien_RageХит недели

RePack

Resident Evil 21

ИГРА 18+

pack

RePack

jed

RePack

fifa19

RePack

Assassins Creed: Odyssey

RePack

NEED FOR SPEED™ PAYBACK

4 сезон

9 сезон

Бесстыжие 9 сезон

Все сериалы

все сериалы на PB.wtf

RePack

FAR CRY 5
  

Человек с волшебной коробкой / Czlowiek z magicznym pudelkiem / The Man with the Magic Box (Бодо Кокс) [2017, фантастика, драма, мелодрама, BDRip 720p] MVO ["Синема УС"] pb.wtf

Человек с волшебной коробкой через торрент pb.wtf

Размер: 4.56 GB | Добавлен: 1 год 10 мес. назад | Торрент скачан:37 раз
Скачать  

16-03-2018 20:17 Человек с волшебной коробкой Скачать торрент  

Человек с волшебной коробкой / Czlowiek z magicznym pudelkiem / The Man with the Magic Box
Год выпуска: 2017
Страна: Италия, Польша
Жанр: фантастика, драма, мелодрама
Продолжительность: 01:42:52
Перевод: Любительский (многоголосый) | ["Синема УС"]
Субтитры: отсутствуют

Режиссер: Бодо Кокс

rating

В ролях:

Ольга Болондзь, Петр Полак, Себастьян Станкевич, Гелена Норович, Войцех Зилински, Бартломей Фирлет, Агата Бузек, Аркадиуш Якубик

Описание:

Польский научно-фантастический триллер про Варшаву 2030. Адам сбегает из бедного района в новый город. Заручившись поддержкой тайного общества, Адам предоставляют квартиру в старом здании и находит работу уборщика. Там он влюбляется в Горию, красивую работницу отдела кадров, но она не воспринимает его всерьёз. У себя в квартире Адам находит радиоприёмник, который играет музыку из прошлого. При этом он передаёт тета-волны, которые позволяют перемещаться во времени.

Качество: BDRip 720p
Формат: MKV
Видео кодек: H.264
Аудио кодек: AC3

Видео: 5903 Kb/s, 1280x536
Аудио#1: Русский, (AC3, 2 ch, 448 Кбит/с)
скриншот  скриншот  скриншот  

Общее
Уникальный идентификатор : 173905699559523029766141569887330728516 (0x82D504F93DED0E0B96E1F34655957A44)
Полное имя : D:\The.man.with.the.magic.box.2017.P.BDRip.72Op_KOSHARA.mkv
Формат : Matroska
Версия формата : Version 2
Размер файла : 4,56 Гбайт
Продолжительность : 1 ч. 42 м.
Режим общего битрейта : Переменный
Общий поток : 6352 Кбит/сек
Дата кодирования : UTC 2018-03-13 18:08:12
Программа кодирования : mkvmerge v8.3.0 ('Over the Horizon') 64bit
Библиотека кодирования : libebml v1.3.1 + libmatroska v1.4.2

Видео
Идентификатор : 1
Формат : AVC
Формат/Информация : Advanced Video Codec
Профиль формата : High@L4.1
Параметр CABAC формата : Да
Параметр RefFrames формата : 4 кадра
Идентификатор кодека : V_MPEG4/ISO/AVC
Продолжительность : 1 ч. 42 м.
Вид битрейта : Переменный
Битрейт : 5903 Кбит/сек
Максимальный битрейт : 6700 Кбит/сек
Ширина : 1280 пикселей
Высота : 536 пикселей
Соотношение сторон : 2,40:1
Режим частоты кадров : Постоянный
Частота кадров : 25,000 кадров/сек
Стандарт вещания : Component
Цветовое пространство : YUV
Субдискретизация насыщенности : 4:2:0
Битовая глубина : 8 бит
Тип развёртки : Прогрессивная
Бит/(Пиксели*Кадры) : 0.337
Размер потока : 4,15 Гбайт (91%)
Default : Да
Forced : Нет
Цветовой диапазон : Limited
Основные цвета : BT.709
Характеристики трансфера : BT.709
Коэффициенты матрицы : BT.709

Аудио
Идентификатор : 2
Формат : AC-3
Формат/Информация : Audio Coding 3
Расширение режима : CM (complete main)
Параметр Endianness формата : Big
Идентификатор кодека : A_AC3
Продолжительность : 1 ч. 42 м.
Вид битрейта : Постоянный
Битрейт : 448 Кбит/сек
Каналы : 2 канала
Расположение каналов : Front: L R
Частота : 48,0 КГц
Частота кадров : 31,250 кадров/сек (1536 spf)
Метод сжатия : С потерями
Размер потока : 330 Мбайт (7%)
Default : Да
Forced : Нет

pb.wtf



Скачать Человек с волшебной коробкой через торрент http://img12.lostpic.net/2018/03/16/080fffee7a289f34f7396c29d488df34.jpg Скачать фильм Человек с волшебной коробкой через торрент бесплантно в хорошем качестве Описание: Польский научно-фантастический триллер про Варшаву 2030. Адам сбегает из бедного района в новый город. Заручившись поддержкой ... 10 10 3
Торрент: Зарегистрирован [2018-03-16 20:17] · скачан: 37 раз
Статус: # сомнительно
Размер: 4.56 GB
Как cкачать? Как скачать Человек с волшебной коробкой через торрент | qTorrent

% Раздел Тема Автор DL S | L
T Фильмы (мультфильмы) cо спонсором показа (Новинки AVI/MKV) [ 1.46 GB ] Человек с волшебной коробкой / Czlowiek z magicznym pudelkiem / The Man with the Magic Box [2017 HDRip] MVO ["Синема УС"] bober100 Скачать
1 | 0

28-11-2019 20:33  

Отключить всю рекламу на сайте


17-03-2018 11:02 Человек с волшебной коробкой Скачать торрент  

судя по описанию полная бредятинаpb.wtf



17-03-2018 15:32 Человек с волшебной коробкой Скачать торрент  

слишком заморочено.артхаус какой-то. pb.wtf



    Дорогой пользователь! Огромная просьба, поблагодарите релизера, оцените раздачу и оставьте свои комментарий, если Вы скачали Человек с волшебной коробкой через торрент бесплатно! Внесите свою лепту в развитие PiratBit!
    Комментировать посты могут только пользователи прошедшие не сложную регистрацию
    Показать сообщения:    

    Человек с волшебной коробкой через торрент
    Скачать бесплатно Человек с волшебной коробкой
    Человек с волшебной коробкой скачать торрент
    Человек с волшебной коробкой смотреть онлайн
    Cкачать фильм Человек с волшебной коробкой бесплатно
    Человек с волшебной коробкой скачать торрент в хорошем качестве
    Человек с волшебной коробкой смотреть онлайн бесплатно в хорошем качестве


    Вы не можете начинать темы
    Вы не можете отвечать на сообщения
    Вы не можете редактировать свои сообщения
    Вы не можете удалять свои сообщения
    Вы не можете голосовать в опросах
    Вы не можете прикреплять файлы к сообщениям
    Вы можете скачивать файлы