2 сезон

iTunes

1 сезон

1

iTunes

iTunes

iTunes

1 сезон

RePack

30

ИГРА 18+

pack

ВАЖНО

!!Акция!!

Alien_RageХит недели

RePack

MK11
pack

Забери бонус

RePack

jed

!!Акция!!

Alien_Rage

RePack

fifa19

RePack

Assassins Creed: Odyssey

RePack

NEED FOR SPEED™ PAYBACK

4 сезон

9 сезон

Бесстыжие 9 сезон

Все сериалы

все сериалы на PB.wtf

RePack

FAR CRY 5
  

Парижанка / Серии 1-2 из 2 (Алексей Смирнов (XIII), Алексей Магид) [2018, Мелодрама, WEB-DLRip] pb.wtf

Парижанка через торрент pb.wtf

Размер: 1.07 GB | Добавлен: 2 года 7 мес. назад | Торрент скачан:46 раз
Скачать  

17-03-2018 02:56 Парижанка Скачать торрент  

ПарижанкаГод выпуска: 2018
Страна: Россия
Жанр: Мелодрама
Продолжительность: 2 x ~ 00:45:00
Субтитры: отсутствуют

Режиссер: Алексей Смирнов (XIII), Алексей Магид



В ролях:

Александр Никитин (III), Анна Здор, Ирина Баринова, Елена Радевич, Михаил Полицеймако

Описание:

Татьяна, будучи еще совсем юной, уезжает жить во Францию. Там начинается ее новая и счастливая жизнь. Однако последний супруг, известный французский миллионер, неожиданно умирает. В завещании он указывает, что все его наследство переходит к его супруге в том случае, если она выйдет замуж за русского. Татьяна отправляется в свой родной город на поиски нового избранника. Молодая женщина верит, что сможет отыскать свою любовь, несмотря на то, что у нее всего неделя, чтобы исполнить волю покойного супруга.

Качество: WEB-DLRip
Формат: AVI

Видео: XviD, ~ 1543 Кбит/с, 720x400
Аудио: AC3, 2 ch, 192 Кбит/с
скриншот   скриншот   скриншот   скриншот  

Общее
Полное имя : D:\Parizanka.2017.WEB-DLRip.Files-x\01.Parizanka.2017.WEB-DLRip.Files-x.avi
Формат : AVI
Формат/Информация : Audio Video Interleave
Размер файла : 550 Мбайт
Продолжительность : 44 м. 4 с.
Общий поток : 1745 Кбит/сек
Программа кодирования : VirtualDubMod 1.5.10.3 | www.virtualdub-fr.org || (build 2550/release)
Библиотека кодирования : VirtualDubMod build 2550/release

Видео
Идентификатор : 0
Формат : MPEG-4 Visual
Профиль формата : Advanced Simple@L5
Параметр BVOP формата : 1
Параметр QPel формата : Нет
Параметр GMC формата : Без точки перехода
Параметр матрицы формата : Выборочная
Идентификатор кодека : XVID
Идентификатор кодека/Подсказка : XviD
Продолжительность : 44 м. 4 с.
Битрейт : 1543 Кбит/сек
Ширина : 720 пикселей
Высота : 400 пикселей
Соотношение сторон : 16:9
Частота кадров : 24,000 кадра/сек
Цветовое пространство : YUV
Субдискретизация насыщенности : 4:2:0
Битовая глубина : 8 бит
Тип развёртки : Прогрессивная
Метод сжатия : С потерями
Бит/(Пиксели*Кадры) : 0.223
Размер потока : 487 Мбайт (88%)
Библиотека кодирования : XviD 73

Аудио
Идентификатор : 1
Формат : AC-3
Формат/Информация : Audio Coding 3
Расширение режима : CM (complete main)
Параметр Endianness формата : Big
Идентификатор кодека : 2000
Продолжительность : 44 м. 4 с.
Вид битрейта : Постоянный
Битрейт : 192 Кбит/сек
Каналы : 2 канала
Расположение каналов : Front: L R
Частота : 48,0 КГц
Частота кадров : 31,250 кадров/сек (1536 spf)
Метод сжатия : С потерями
Размер потока : 60,5 Мбайт (11%)
Выравнивание : Разделение по промежуткам
Продолжительность промежутка : 42 мс. (1,00 видеокадр)
Время предзагрузки промежутка : 500 мс.

pb.wtf



Скачать Парижанка через торрент http://i100.fastpic.ru/big/2018/0316/59/81a72d9bb5aec13206f6faf71a66d959.jpg Скачать фильм Парижанка через торрент бесплантно в хорошем качестве Описание: Татьяна, будучи еще совсем юной, уезжает жить во Францию. Там начинается ее новая и счастливая жизнь. Однако последний супруг, ... 9.7 10 6
Торрент: Зарегистрирован [2018-03-17 02:56] · скачан: 46 раз
Статус: √ проверено
Размер: 1.07 GB
Как cкачать? Как скачать Парижанка через торрент | qTorrent

% Раздел Тема Автор DL S | L
Наши сериалы [ 1.11 GB ] Парижанка / Серии 1-2 из 2 Алексей Магид) [2018 Мело WEB-DLRip-AVC] bober100 Скачать
1 | 0
Наши сериалы [ 1.04 GB ] Парижанка / Серии: 1-2 из 2 [2017 SATRip-AVC] aleksan55 Скачать
1 | 0

28-11-2019 20:33  

Отключить всю рекламу на сайте

    Дорогой пользователь! Огромная просьба, поблагодарите релизера, оцените раздачу и оставьте свои комментарий, если Вы скачали Парижанка через торрент бесплатно! Внесите свою лепту в развитие PiratBit!
    Комментировать посты могут только пользователи прошедшие не сложную регистрацию
    Показать сообщения:    

    Парижанка через торрент
    Скачать бесплатно Парижанка
    Парижанка скачать торрент
    Парижанка смотреть онлайн
    Cкачать фильм Парижанка бесплатно
    Парижанка скачать торрент в хорошем качестве
    Парижанка смотреть онлайн бесплатно в хорошем качестве


    Вы не можете начинать темы
    Вы не можете отвечать на сообщения
    Вы не можете редактировать свои сообщения
    Вы не можете удалять свои сообщения
    Вы не можете голосовать в опросах
    Вы не можете прикреплять файлы к сообщениям
    Вы можете скачивать файлы