Ссылка на приватное зеркало нашего сайта всего за 1$. Внимание количество ограничено!!!

2 сезон

iTunes

1 сезон

1

2 сезон

2 сезон

iTunes

1 сезон

RePack

30

Ultimate

ВАЖНО

ИГРА 18+

pack

RePack

MK11
pack

Забери бонус

RePack

jed

!!Акция!!

Alien_Rage

RePack

fifa19

RePack

Assassins Creed: Odyssey

RePack

NEED FOR SPEED™ PAYBACK

4 сезон

9 сезон

Бесстыжие 9 сезон

Все сериалы

все сериалы на PB.wtf

RePack

FAR CRY 5
  

Чужой: Завет / Alien: Covenant (Ридли Скотт) [2017, ужасы, фантастика, триллер, BD Remux 1080p] DUB (rus, ukr) + MVO + 4xAVO pb.wtf

Чужой: Завет через торрент pb.wtf

Размер: 45.91 GB | Добавлен: 2 года 8 мес. назад | Торрент скачан:28 раз
Скачать  

17-03-2018 12:26 Чужой: Завет Скачать торрент  

Чужой: Завет / Alien: Covenant
Год выпуска: 2017
Страна: США, Великобритания
Жанр: ужасы, фантастика, триллер
Продолжительность: 02:02:03
Перевод: Дублированный, любительский многоголосый, авторский
Субтитры: Русские (forced, full, full (ненорматив)), (full, SDH, SDH (COLORED))
Режиссер: Ридли Скотт
В ролях:


Майкл Фассбендер, Кэтрин Уотерстон, Билли Крудап, Дэнни МакБрайд, Демиан Бишир, Кармен Эджого, Джусси Смоллетт, Калли Эрнандес, Эми Саймец, Натаниель Дин, Александр Инглэнд, Бенжамин Ригби
Описание:
Во время обследования удаленной планеты, расположенной на другой стороне галактики, экипаж колониального корабля «Завет» обнаруживает, что то, что они изначально приняли за неизведанный рай, на самом деле - тёмный и опасный мир. Его единственный житель - синтетический андроид Дэвид, оставшийся в живых после обреченной экспедиционной миссии «Прометей».

Рейтинг:

MPAA: R - Лицам до 17 лет обязательно присутствие взрослого
Качество: BD Remux 1080p
Формат: MKV
Видео: MPEG-4 AVC, 25107 Кбит/с, 1920x1080, 23.976 кадр/с
Аудио 1: Русский DTS / 5.1 / 48 kHz / 768 kbps - Дубляж (Лицензия)
Аудио 2: Русский DTS-HD MA / 48.0 KHz / 7.1 / 3456 kbps / 24 bit - ПМ (Paradox&Omskbird records (ненорматив))
Аудио 3: Русский DTS- HRA / 48.0 KHz / 7.1 / 5241 kbps / 24 bit - Авторский (Матвеев)
Аудио 4: Русский DTS-HD MA / 48.0 KHz /7.1 / 5241 kbps / 24 bit - Авторский (Матвеев (ненорматив))
Аудио 5: Русский DTS Audio 5.1 / 48 kHz, 1509 kbps, 24-bit - Авторский (Дохалов)
Аудио 6: Русский DTS Audio 5.1 / 48 kHz, 1509 kbps, 24-bit - Авторский (Живов)
Аудио 7: Русский DTS- HD MA / 48.0 KHz / 7.1 / 5350 kbps / 24 bit - Авторский (Гаврилов)
Аудио 8: Английский DTS-HD Master Audio / 7.1 / 48 kHz / 5341 kbps / 24-bit - Оригинал
Аудио 9: Украинский AC3, 6ch 448 Kbps - Дубляж
Навигация по главам: есть

Общее
Уникальный идентификатор : 202752429711951959546448204824461918715 (0x9888B293D0331C428AE90CC8705341FB)
Полное имя : D:\РЕМУКС!!!!!\Чужой. Завет.BDRemux.mkv
Формат : Matroska
Версия формата : Version 4 / Version 2
Размер файла : 45,9 Гбайт
Продолжительность : 2 ч. 2 м.
Режим общего битрейта : Переменный
Общий поток : 53,9 Мбит/сек
Название фильма : Чужой: Завет.BDRemux.thx:SPOMOPS
Дата кодирования : UTC 2018-03-14 15:46:45
Программа кодирования : mkvmerge v8.3.0 ('Over the Horizon') 64bit
Библиотека кодирования : libebml v1.3.1 + libmatroska v1.4.2
Обложка : Yes
Attachments : cover.jpg

Видео
Идентификатор : 1
Формат : AVC
Формат/Информация : Advanced Video Codec
Профиль формата : High@L4.1
Настройки формата : CABAC / 4 Ref Frames
Параметр CABAC формата : Да
Параметр RefFrames формата : 4 кадра
Идентификатор кодека : V_MPEG4/ISO/AVC
Продолжительность : 2 ч. 2 м.
Вид битрейта : Переменный
Битрейт : 25,0 Мбит/сек
Максимальный битрейт : 31,0 Мбит/сек
Ширина : 1920 пикселей
Высота : 1080 пикселей
Соотношение сторон : 16:9
Режим частоты кадров : Постоянный
Частота кадров : 23,976 (24000/1001) кадра/сек
Цветовое пространство : YUV
Субдискретизация насыщенности : 4:2:0
Битовая глубина : 8 бит
Тип развёртки : Прогрессивная
Бит/(Пиксели*Кадры) : 0.502
Размер потока : 21,3 Гбайт (46%)
Заголовок : MPEG-4 AVC, 25107 Кбит/с, 1920x1080
Язык : English
Default : Нет
Forced : Нет

Аудио #1
Идентификатор : 2
Формат : DTS
Формат/Информация : Digital Theater Systems
Идентификатор кодека : A_DTS
Продолжительность : 2 ч. 2 м.
Вид битрейта : Постоянный
Битрейт : 768 Кбит/сек
Каналы : 6 каналов
Расположение каналов : Front: L C R, Side: L R, LFE
Частота : 48,0 КГц
Частота кадров : 93,750 кадра/сек (512 SPF)
Битовая глубина : 24 бит
Метод сжатия : С потерями
Размер потока : 670 Мбайт (1%)
Заголовок : Русский DTS - Дубляж
Язык : Russian
Default : Да
Forced : Нет

Аудио #2
Идентификатор : 3
Формат : DTS
Формат/Информация : Digital Theater Systems
Профиль формата : HRA / Core
Идентификатор кодека : A_DTS
Продолжительность : 2 ч. 2 м.
Вид битрейта : Постоянный
Битрейт : 3456 Кбит/сек / 1509 Кбит/сек
Каналы : 8 каналов / 6 каналов
Расположение каналов : Front: L C R, Side: L R, Back: L R, LFE / Front: L C R, Side: L R, LFE
Частота : 48,0 КГц
Частота кадров : 93,750 кадра/сек (512 SPF)
Битовая глубина : 24 бит
Метод сжатия : С потерями
Размер потока : 2,95 Гбайт (6%)
Заголовок : Русский DTS HRA - Paradox&Omskbird records
Язык : Russian
Default : Нет
Forced : Нет

Аудио #3
Идентификатор : 4
Формат : DTS
Формат/Информация : Digital Theater Systems
Профиль формата : MA / ES Matrix / Core
Идентификатор кодека : A_DTS
Продолжительность : 2 ч. 2 м.
Вид битрейта : Переменный / Постоянный / Постоянный
Битрейт : 5241 Кбит/сек / 1509 Кбит/сек / 1509 Кбит/сек
Каналы : 8 каналов / 7 каналов / 6 каналов
Расположение каналов : Front: L C R, Side: L R, Back: L R, LFE / Front: L C R, Side: L R, Back: C, LFE / Front: L C R, Side: L R, LFE
Частота : 48,0 КГц
Частота кадров : 93,750 кадра/сек (512 SPF)
Битовая глубина : 24 бит
Метод сжатия : Без потерь / Lossy / Lossy
Размер потока : 4,47 Гбайт (10%)
Заголовок : Русский DTS-HD MA - АП (Матвеев)
Язык : Russian
Default : Нет
Forced : Нет

Аудио #4
Идентификатор : 5
Формат : DTS
Формат/Информация : Digital Theater Systems
Профиль формата : MA / ES Matrix / Core
Идентификатор кодека : A_DTS
Продолжительность : 2 ч. 2 м.
Вид битрейта : Переменный / Постоянный / Постоянный
Битрейт : 5240 Кбит/сек / 1509 Кбит/сек / 1509 Кбит/сек
Каналы : 8 каналов / 7 каналов / 6 каналов
Расположение каналов : Front: L C R, Side: L R, Back: L R, LFE / Front: L C R, Side: L R, Back: C, LFE / Front: L C R, Side: L R, LFE
Частота : 48,0 КГц
Частота кадров : 93,750 кадра/сек (512 SPF)
Битовая глубина : 24 бит
Метод сжатия : Без потерь / Lossy / Lossy
Размер потока : 4,47 Гбайт (10%)
Заголовок : Русский DTS-HD MA - АП (Матвеев (Ненорматив))
Язык : Russian
Default : Нет
Forced : Нет

Аудио #5
Идентификатор : 6
Формат : DTS
Формат/Информация : Digital Theater Systems
Идентификатор кодека : A_DTS
Продолжительность : 2 ч. 2 м.
Вид битрейта : Постоянный
Битрейт : 1509 Кбит/сек
Каналы : 6 каналов
Расположение каналов : Front: L C R, Side: L R, LFE
Частота : 48,0 КГц
Частота кадров : 93,750 кадра/сек (512 SPF)
Битовая глубина : 24 бит
Метод сжатия : С потерями
Размер потока : 1,29 Гбайт (3%)
Заголовок : Русский DTS - АП (Дохалов)
Язык : Russian
Default : Нет
Forced : Нет

Аудио #6
Идентификатор : 7
Формат : DTS
Формат/Информация : Digital Theater Systems
Идентификатор кодека : A_DTS
Продолжительность : 2 ч. 2 м.
Вид битрейта : Постоянный
Битрейт : 1509 Кбит/сек
Каналы : 6 каналов
Расположение каналов : Front: L C R, Side: L R, LFE
Частота : 48,0 КГц
Частота кадров : 93,750 кадра/сек (512 SPF)
Битовая глубина : 24 бит
Метод сжатия : С потерями
Размер потока : 1,29 Гбайт (3%)
Заголовок : Русский DTS - АП (Живов)
Язык : Russian
Default : Нет
Forced : Нет

Аудио #7
Идентификатор : 8
Формат : DTS
Формат/Информация : Digital Theater Systems
Профиль формата : MA / Core
Идентификатор кодека : A_DTS
Продолжительность : 2 ч. 2 м.
Вид битрейта : Переменный / Постоянный
Битрейт : 5350 Кбит/сек / 1509 Кбит/сек
Каналы : 8 каналов / 6 каналов
Расположение каналов : Front: L C R, Side: L R, Back: L R, LFE / Front: L C R, Side: L R, LFE
Частота : 48,0 КГц
Частота кадров : 93,750 кадра/сек (512 SPF)
Битовая глубина : 24 бит
Метод сжатия : Без потерь / Lossy
Размер потока : 4,56 Гбайт (10%)
Заголовок : Русский DTS-HD MA - АП (Гаврилов)
Язык : Russian
Default : Нет
Forced : Нет

Аудио #8
Идентификатор : 9
Формат : DTS
Формат/Информация : Digital Theater Systems
Профиль формата : MA / ES Matrix / Core
Идентификатор кодека : A_DTS
Продолжительность : 2 ч. 2 м.
Вид битрейта : Переменный / Постоянный / Постоянный
Битрейт : 5341 Кбит/сек / 1509 Кбит/сек / 1509 Кбит/сек
Каналы : 8 каналов / 7 каналов / 6 каналов
Расположение каналов : Front: L C R, Side: L R, Back: L R, LFE / Front: L C R, Side: L R, Back: C, LFE / Front: L C R, Side: L R, LFE
Частота : 48,0 КГц
Частота кадров : 93,750 кадра/сек (512 SPF)
Битовая глубина : 24 бит
Метод сжатия : Без потерь / Lossy / Lossy
Размер потока : 4,55 Гбайт (10%)
Заголовок : Английский DTS-HD MA - Оригинал
Язык : English
Default : Нет
Forced : Нет

Аудио #9
Идентификатор : 10
Формат : AC-3
Формат/Информация : Audio Coding 3
Идентификатор кодека : A_AC3
Продолжительность : 2 ч. 2 м.
Вид битрейта : Постоянный
Битрейт : 448 Кбит/сек
Каналы : 6 каналов
Расположение каналов : Front: L C R, Side: L R, LFE
Частота : 48,0 КГц
Частота кадров : 31,250 кадров/сек (1536 SPF)
Битовая глубина : 16 бит
Метод сжатия : С потерями
Размер потока : 391 Мбайт (1%)
Заголовок : Украинский АСЗ - Дубляж
Язык : Ukrainian
ServiceKind/String : Complete Main
Default : Нет
Forced : Нет

Текст #1
Идентификатор : 11
Формат : UTF-8
Идентификатор кодека : S_TEXT/UTF8
Идентификатор кодека/Информация : UTF-8 Plain Text
Продолжительность : 1 ч. 45 м.
Битрейт : 0 бит/сек
ElementCount : 8
Размер потока : 347 байт (0%)
Заголовок : Русские форс
Язык : Russian
Default : Да
Forced : Нет

Текст #2
Идентификатор : 12
Формат : UTF-8
Идентификатор кодека : S_TEXT/UTF8
Идентификатор кодека/Информация : UTF-8 Plain Text
Продолжительность : 1 ч. 55 м.
Битрейт : 69 бит/сек
ElementCount : 862
Размер потока : 58,5 Кбайт (0%)
Заголовок : Русские (Матвеев)
Язык : Russian
Default : Нет
Forced : Нет

Текст #3
Идентификатор : 13
Формат : UTF-8
Идентификатор кодека : S_TEXT/UTF8
Идентификатор кодека/Информация : UTF-8 Plain Text
Продолжительность : 1 ч. 55 м.
Битрейт : 69 бит/сек
ElementCount : 862
Размер потока : 58,9 Кбайт (0%)
Заголовок : Русские (Матвеев (Ненорматив))
Язык : Russian
Default : Нет
Forced : Нет

Текст #4
Идентификатор : 14
Формат : UTF-8
Идентификатор кодека : S_TEXT/UTF8
Идентификатор кодека/Информация : UTF-8 Plain Text
Продолжительность : 1 ч. 54 м.
Битрейт : 44 бит/сек
ElementCount : 1451
Размер потока : 36,8 Кбайт (0%)
Заголовок : Английские
Язык : English
Default : Нет
Forced : Нет

Текст #5
Идентификатор : 15
Формат : UTF-8
Идентификатор кодека : S_TEXT/UTF8
Идентификатор кодека/Информация : UTF-8 Plain Text
Продолжительность : 1 ч. 54 м.
Битрейт : 52 бит/сек
ElementCount : 1709
Размер потока : 44,3 Кбайт (0%)
Заголовок : Английские SDH
Язык : English
Default : Нет
Forced : Нет

Текст #6
Идентификатор : 16
Формат : UTF-8
Идентификатор кодека : S_TEXT/UTF8
Идентификатор кодека/Информация : UTF-8 Plain Text
Продолжительность : 1 ч. 54 м.
Битрейт : 75 бит/сек
ElementCount : 1709
Размер потока : 63,5 Кбайт (0%)
Заголовок : Английские SDH-Colored
Язык : English
Default : Нет
Forced : Нет

Текст #7
Идентификатор : 17
Формат : UTF-8
Идентификатор кодека : S_TEXT/UTF8
Идентификатор кодека/Информация : UTF-8 Plain Text
Продолжительность : 1 ч. 54 м.
Битрейт : 73 бит/сек
ElementCount : 1342
Размер потока : 61,7 Кбайт (0%)
Заголовок : Украинские
Язык : Ukrainian
Default : Нет
Forced : Нет

Меню
00:00:00.000 : en:00:00:00.000
00:04:47.662 : en:00:04:47.662
00:13:07.495 : en:00:13:07.495
00:18:11.924 : en:00:18:11.924
00:22:46.448 : en:00:22:46.448
00:27:51.169 : en:00:27:51.169
00:33:12.908 : en:00:33:12.908
00:37:18.736 : en:00:37:18.736
00:42:19.912 : en:00:42:19.912
00:47:43.694 : en:00:47:43.694
00:52:04.371 : en:00:52:04.371
00:55:56.270 : en:00:55:56.270
01:00:17.447 : en:01:00:17.447
01:06:20.643 : en:01:06:20.643
01:11:25.031 : en:01:11:25.031
01:16:35.883 : en:01:16:35.883
01:21:10.032 : en:01:21:10.032
01:28:18.793 : en:01:28:18.793
01:31:21.559 : en:01:31:21.559
01:34:52.437 : en:01:34:52.437
01:39:23.666 : en:01:39:23.666
01:43:35.876 : en:01:43:35.876
01:50:49.309 : en:01:50:49.309
01:55:27.754 : en:01:55:27.754
pb.wtf



Скачать Чужой: Завет через торрент http://i103.fastpic.ru/big/2018/0317/39/50e387e070befe3e63e5a8e7bc5eee39.png Скачать фильм Чужой: Завет через торрент бесплантно в хорошем качестве Описание: Во время обследования удаленной планеты, расположенной на другой стороне галактики, экипаж колониального корабля «Завет» ... 7.5 10 2
Торрент: Зарегистрирован [2018-03-17 12:26] · скачан: 28 раз
Статус: √ проверено
Размер: 45.91 GB
Как cкачать? Как скачать Чужой: Завет через торрент | qTorrent

% Раздел Тема Автор DL S | L
Фильмы (WEB-DL 720p, 1080p) [ 19 GB ] Чужой: Завет / Alien: Covenant [2017 WEB-DL 1080p] [Hybrid IMAX Edition] DUB + MVO + 3xAVO sheker187 Скачать
1 | 0

28-11-2019 20:33  

Отключить всю рекламу на сайте

17-03-2018 12:37 Чужой: Завет Скачать торрент  

ожидал большего от фильма,ну фильм так себе,видимо ридли скотт уже стар, 4 по рейтингу (pb.wtf



    Дорогой пользователь! Огромная просьба, поблагодарите релизера, оцените раздачу и оставьте свои комментарий, если Вы скачали Чужой: Завет через торрент бесплатно! Внесите свою лепту в развитие PiratBit!
    Комментировать посты могут только пользователи прошедшие не сложную регистрацию
    Показать сообщения:    

    Чужой: Завет через торрент
    Скачать бесплатно Чужой: Завет
    Чужой: Завет скачать торрент
    Чужой: Завет смотреть онлайн
    Cкачать фильм Чужой: Завет бесплатно
    Чужой: Завет скачать торрент в хорошем качестве
    Чужой: Завет смотреть онлайн бесплатно в хорошем качестве


    Вы не можете начинать темы
    Вы не можете отвечать на сообщения
    Вы не можете редактировать свои сообщения
    Вы не можете удалять свои сообщения
    Вы не можете голосовать в опросах
    Вы не можете прикреплять файлы к сообщениям
    Вы можете скачивать файлы