Ссылка на приватное зеркало всего за 1$. Внимание количество ограничено!!!

OK

1+1

iTunes

мы

OK

1

WEB-DLRip

Джокер

Пифагор

Ведьмак / The Witcher сериал

iTunes

ПШазам

ОК

Оно 2

iTunes

30
pack

Вам бонус

ВАЖНО

!!Акция!!

Alien_RageХит недели

RePack

Resident Evil 21

ИГРА 18+

pack

RePack

jed

RePack

fifa19

RePack

Assassins Creed: Odyssey

RePack

NEED FOR SPEED™ PAYBACK

4 сезон

9 сезон

Бесстыжие 9 сезон

Все сериалы

все сериалы на PB.wtf

RePack

FAR CRY 5
  

Фар Край 5: "За вратами Эдема" / Far Cry 5: Inside Eden's Gate (Бэрри Баттлс) [2018, драма, триллер,ужасы, WEB-DL 720p] MVO ["Синема УС"] pb.wtf

Фар Край 5: "За вратами Эдема" через торрент pb.wtf

Размер: 1.31 GB | Добавлен: 1 год 10 мес. назад | Торрент скачан:255 раз
Скачать  

17-03-2018 13:01 Фар Край 5: "За вратами Эдема" Скачать торрент  

Фар Край 5: "За вратами Эдема" / Far Cry 5: Inside Eden's GateГод выпуска: 2018
Страна: Канада
Жанр: драма, триллер,ужасы
Продолжительность: 00:33:01
Перевод: Любительский (многоголосый) | ["Синема УС"]
Субтитры: отсутствуют

Режиссер: Бэрри Баттлс

rating

В ролях:

Грег Брик, Кайл Галльнер, Алексис Б. Сантьяго, Эрин Манкер, Джарретт Уорли, Адам Дорси

Описание:

Короткометражный фильм является предысторией одноимённой игры и повествует о троих видеоблогерах, отправившихся в округ Хоуп расследовать похищения местных жителей и другие загадочные события. Оказавшись «За Вратами Эдема», герои сталкиваются с самим Иосифом Сидом – предводителем зловещего Культа Конца света.

Качество: WEB-DL 720p
Формат: MKV

Видео: 5279 Kb/s, 1280x542
Аудио#1: Русский, (AC3, 2 ch, 384 Кбит/с)
скриншот  скриншот  скриншот  

Общее
Уникальный идентификатор : 178501754572342622488693014483643126619 (0x864A2FFB20AC943BAB835F683F1FD35B)
Полное имя : D:\Far.Cry.5.Inside.Edens.Gate.2018.P.WEB-DL.72Op_KOSHARA.mkv
Формат : Matroska
Версия формата : Version 2
Размер файла : 1,31 Гбайт
Продолжительность : 33 м. 1 с.
Режим общего битрейта : Переменный
Общий поток : 5665 Кбит/сек
Дата кодирования : UTC 2018-03-13 05:10:24
Программа кодирования : mkvmerge v8.3.0 ('Over the Horizon') 64bit
Библиотека кодирования : libebml v1.3.1 + libmatroska v1.4.2

Видео
Идентификатор : 1
Формат : AVC
Формат/Информация : Advanced Video Codec
Профиль формата : High@L4.1
Параметр CABAC формата : Да
Параметр RefFrames формата : 4 кадра
Идентификатор кодека : V_MPEG4/ISO/AVC
Продолжительность : 33 м. 1 с.
Вид битрейта : Переменный
Битрейт : 5279 Кбит/сек
Максимальный битрейт : 6000 Кбит/сек
Ширина : 1280 пикселей
Высота : 542 пикселя
Соотношение сторон : 2,35:1
Режим частоты кадров : Постоянный
Частота кадров : 23,976 (24000/1001) кадра/сек
Стандарт вещания : Component
Цветовое пространство : YUV
Субдискретизация насыщенности : 4:2:0
Битовая глубина : 8 бит
Тип развёртки : Прогрессивная
Бит/(Пиксели*Кадры) : 0.311
Размер потока : 1,19 Гбайт (91%)
Default : Да
Forced : Нет
Цветовой диапазон : Limited
Основные цвета : BT.709
Характеристики трансфера : BT.709
Коэффициенты матрицы : BT.709

Аудио
Идентификатор : 2
Формат : AC-3
Формат/Информация : Audio Coding 3
Расширение режима : CM (complete main)
Параметр Endianness формата : Big
Идентификатор кодека : A_AC3
Продолжительность : 33 м. 1 с.
Вид битрейта : Постоянный
Битрейт : 384 Кбит/сек
Каналы : 2 канала
Расположение каналов : Front: L R
Частота : 48,0 КГц
Частота кадров : 31,250 кадров/сек (1536 spf)
Метод сжатия : С потерями
Размер потока : 90,7 Мбайт (7%)
Default : Да
Forced : Нет

pb.wtf



Скачать Фар Край 5: "За вратами Эдема" через торрент http://img12.lostpic.net/2018/03/17/c892f27b873b36ecc936b02df04b9e4f.jpg Скачать фильм Фар Край 5: "За вратами Эдема" через торрент бесплантно в хорошем качестве Описание: Короткометражный фильм является предысторией одноимённой игры и повествует о троих видеоблогерах, отправившихся в округ Хоуп ... 6.8 10 11
Info! Золотая раздача, скачанное не засчитывается.
Торрент: Зарегистрирован [2018-03-17 13:02] · скачан: 255 раз
Статус: T временная
Размер: 1.31 GB
Как cкачать? Как скачать Фар Край 5: "За вратами Эдема" через торрент | qTorrent

28-11-2019 20:33  

Отключить всю рекламу на сайте

    Дорогой пользователь! Огромная просьба, поблагодарите релизера, оцените раздачу и оставьте свои комментарий, если Вы скачали Фар Край 5: "За вратами Эдема" через торрент бесплатно! Внесите свою лепту в развитие PiratBit!
    Комментировать посты могут только пользователи прошедшие не сложную регистрацию
    Показать сообщения:    

    Фар Край 5: "За вратами Эдема" через торрент
    Скачать бесплатно Фар Край 5: "За вратами Эдема"
    Фар Край 5: "За вратами Эдема" скачать торрент
    Фар Край 5: "За вратами Эдема" смотреть онлайн
    Cкачать фильм Фар Край 5: "За вратами Эдема" бесплатно
    Фар Край 5: "За вратами Эдема" скачать торрент в хорошем качестве
    Фар Край 5: "За вратами Эдема" смотреть онлайн бесплатно в хорошем качестве


    Вы не можете начинать темы
    Вы не можете отвечать на сообщения
    Вы не можете редактировать свои сообщения
    Вы не можете удалять свои сообщения
    Вы не можете голосовать в опросах
    Вы не можете прикреплять файлы к сообщениям
    Вы можете скачивать файлы