Мега распродажа FORZA HORIZON 4 ULTIMATE+ВСЕ DLC+ОНЛАЙН всего за 499р. 349 руб. (супер цена). Внимание количество ограничено!!!

iTunes

1+1

iTunes

мы

iTunes

1

1 сезон

Чернобыль

1 сезон

Ральф против интернета

Лицензия

ПШазам

8 сезон

Игра престолов

Лицензия

30
pack

ВАЖНО

!!Акция!!

Alien_RageХит недели

RePack

Resident Evil 21

ИГРА 18+

pack

RePack

Metro:Exodus

!!Акция!!

Alien_Rage

RePack

fifa19

RePack

Assassins Creed: Odyssey

RePack

NEED FOR SPEED™ PAYBACK

3 сезон

9 сезон

Бесстыжие 9 сезон

Все сериалы

все сериалы на PB.wtf

RePack

FAR CRY 5
Ребята, катастрофически не хватает 2730р. для оплаты серверов за ИЮНЬ (всвязи с блокировками трафик упал в 3 раза), 1-2р., выручайте.
  

Дальше некуда / On aura tout vu (Жорж Лотнер) [1976 г, комедия, BDRip] MVO pb.wtf

Дальше некуда через торрент pb.wtf

Размер: 1.45 GB | Добавлен: 1 год 4 мес. назад | Торрент скачан:14 раз
Скачать  

17-03-2018 13:09 Дальше некуда Скачать торрент  

Дальше некуда / On aura tout vu
Год выпуска: 1976
Страна: Франция
Жанр: комедия
Продолжительность: 01:41:43
Перевод: Профессиональный (многоголосый)

Режиссер: Жорж Лотнер

rating

В ролях: Пьер Ришар, Миу-Миу, Жан-Пьер Марьель, Рене Сен-Сир, Жерар Жюньо, Сабин Азема, Арлетт Эммери, Валери Мересс, Жан Мико, Жан Луизи, Мишель Блан, Френсис Лакс, Анри Гибе, Саманта Ллоренс

Описание: Рекламный фотограф Франсуа Перрен написал сценарий к фильму вместе с другом, работающим на макаронной фабрике. Для него это шанс вырваться из бедности. Фильм по задумке должен быть о чистой, возвышенной любви, но продюсер согашается финансировать постановку только в том случае, если в него будут добавлены эротические сцены. Его любимая, узнав о таком повороте в "искусстве", уходит. Франсуа идет на уступки, сдает позиции, и в результате получается полная порнография, такая, которой он уже сам вынести не может.

Качество: BDRip (On tout vu by D_I_A_B_L_O / BD-Remux)
Формат: AVI
Видео: XviD, 1776 Кбит/с, 720x432, 24 Кадр/с
Аудио: AC3, 2 ch, 256 Кбит/с
Релиз от: Koenig
скриншот   скриншот   скриншот   скриншот   скриншот   скриншот  

Общее
Полное имя : On.aura.tout.vu.1976.BDRip.avi
Формат : AVI
Формат/Информация : Audio Video Interleave
Размер файла : 1,45 Гбайт
Продолжительность : 1 ч. 41 м.
Общий поток : 2041 Кбит/сек
Программа кодирования : VirtualDubMod 1.5.10.2 (build 2540/release)
Библиотека кодирования : VirtualDubMod build 2540/release

Видео
Идентификатор : 0
Формат : MPEG-4 Visual
Профиль формата : Advanced Simple@L5
Параметр BVOP формата : 1
Параметр QPel формата : Нет
Параметр GMC формата : Без точки перехода
Параметр матрицы формата : Выборочная
Идентификатор кодека : XVID
Идентификатор кодека/Подсказка : XviD
Продолжительность : 1 ч. 41 м.
Битрейт : 1776 Кбит/сек
Ширина : 720 пикселей
Высота : 432 пикселя
Соотношение сторон : 5:3
Частота кадров : 24,000 кадра/сек
Цветовое пространство : YUV
Субдискретизация насыщенности : 4:2:0
Битовая глубина : 8 бит
Тип развёртки : Прогрессивная
Метод сжатия : С потерями
Бит/(Пиксели*Кадры) : 0.238
Размер потока : 1,26 Гбайт (87%)
Библиотека кодирования : XviD 65

Аудио
Идентификатор : 1
Формат : AC-3
Формат/Информация : Audio Coding 3
Параметр Endianness формата : Big
Идентификатор кодека : 2000
Продолжительность : 1 ч. 41 м.
Вид битрейта : Постоянный
Битрейт : 256 Кбит/сек
Каналы : 2 канала
Расположение каналов : Front: L R
Частота : 48,0 КГц
Частота кадров : 31,250 кадров/сек (1536 spf)
Битовая глубина : 16 бит
Метод сжатия : С потерями
Размер потока : 186 Мбайт (13%)
Выравнивание : Разделение по промежуткам
Продолжительность промежутка : 42 мс. (1,00 видеокадр)
Время предзагрузки промежутка : 500 мс.
ServiceKind/String : Complete Main

pb.wtf



Скачать Дальше некуда через торрент http://img12.lostpic.net/2018/03/17/790a557cf843693dea311c3922563b23.jpg Скачать фильм Дальше некуда через торрент бесплантно в хорошем качестве Описание: Рекламный фотограф Франсуа Перрен написал сценарий к фильму вместе с другом, работающим на макаронной фабрике. Для него это шанс ... 5 10 1
Торрент: Зарегистрирован [2018-03-17 13:09] · скачан: 14 раз
Статус: √ проверено
Размер: 1.45 GB
Как cкачать? Как скачать Дальше некуда через торрент | qTorrent


>> Регистрируемся здесь <<






Отзывы и комментарии о схеме читаем и пишем здесь: ---> Отзывы и комментарии о схеме

Новые благодарочки в телеграм довольных пользователей:
скриншот   скриншот   скриншот   скриншот   скриншот
    Дорогой пользователь! Огромная просьба, поблагодарите релизера, оцените раздачу и оставьте свои комментарий, если Вы скачали Дальше некуда через торрент бесплатно! Внесите свою лепту в развитие PiratBit!
    Комментировать посты могут только пользователи прошедшие не сложную регистрацию
    Показать сообщения:    

    Дальше некуда через торрент
    Скачать бесплатно Дальше некуда
    Дальше некуда скачать торрент
    Дальше некуда смотреть онлайн
    Cкачать фильм Дальше некуда бесплатно
    Дальше некуда скачать торрент в хорошем качестве
    Дальше некуда смотреть онлайн бесплатно в хорошем качестве


    Вы не можете начинать темы
    Вы не можете отвечать на сообщения
    Вы не можете редактировать свои сообщения
    Вы не можете удалять свои сообщения
    Вы не можете голосовать в опросах
    Вы не можете прикреплять файлы к сообщениям
    Вы можете скачивать файлы