Ссылка на приватное зеркало нашего сайта всего за 1$. Внимание количество ограничено!!!

2 сезон

iTunes

1 сезон

1

2 сезон

2 сезон

iTunes

1 сезон

RePack

30

Новинка

ВАЖНО

ИГРА 18+

pack

RePack

MK11
pack

Забери бонус

RePack

jed

!!Акция!!

Alien_Rage

RePack

fifa19

RePack

Assassins Creed: Odyssey

RePack

NEED FOR SPEED™ PAYBACK

4 сезон

9 сезон

Бесстыжие 9 сезон

Все сериалы

все сериалы на PB.wtf

RePack

FAR CRY 5
  

Эда / Edha / Сезон: 1 / Серии: 1-8 из 8 (Даниэль Бурман) [2018, Драма, триллер, WEBRip] MVO [ColdFilm] pb.wtf

Эда через торрент pb.wtf

Размер: 3.03 GB | Добавлен: 2 года 8 мес. назад | Торрент скачан:6 раз
Скачать  

17-03-2018 13:23 Эда Скачать торрент  

Эда / EdhaГод выпуска: 2018
Страна: США, Аргентина
Жанр: Драма, триллер
Продолжительность: 8 x ~ 00:31:00
Перевод: Любительский (многоголосый) |
Субтитры: отсутствуют

Режиссер: Даниэль Бурман

rating

В ролях:

Хуана Вьяле, Андрес Веленкосо, Пабло Эчарри, Осмар Нуньес, Антонио Бирабент, Флавио Мендоза, Инес Эстевес, Хульета Сильберберг, Дельфина Чавес

Описание:

Она молодой успешный модельер и одинокая мать, которая находится на перепутье. Вскоре ей предстоит принять решение, которое, возможно изменит ее жизнь навсегда. Сериал Edha, снятый в Аргентине для сервиса Netflix, рассказывает историю молодой женщины, пытающейся сделать непростой выбор, который должен ее привести на совершенно новый уровень в мире моды. Все меняется, когда она встречает, красивого эмигранта из модельного бизнеса.

Качество: WEBRip
Формат: AVI

Видео: 1270 Кбит/с, 720x400, 29.970 fps
Аудио: Русский (MP3, 2 ch, 128 Кбит/с)
скриншот   скриншот   скриншот   [th]http://pic1.kartinco.top/images/11/tdvyh.jpg[/th]

Общее
Полное имя : D:\Edha.S01.400p.ColdFilm\Edha.S01E01.400p.ColdFilm.avi
Формат : AVI
Формат/Информация : Audio Video Interleave
Размер файла : 394 Мбайт
Продолжительность : 40 м. 52 с.
Общий поток : 1347 Кбит/сек
Программа кодирования : Lavf57.40.101

Видео
Идентификатор : 1
Формат : MPEG-4 Visual
Профиль формата : Advanced Simple@L1
Параметр BVOP формата : Нет
Параметр QPel формата : Нет
Параметр GMC формата : Без точки перехода
Параметр матрицы формата : Default (H.263)
Идентификатор кодека : FMP4
Продолжительность : 40 м. 52 с.
Битрейт : 1188 Кбит/сек
Ширина : 720 пикселей
Высота : 400 пикселей
Соотношение сторон : 16:9
Режим частоты кадров : Переменный
Частота кадров : 119,880 (24/30) кадров/сек
Минимальная частота кадров : 23,976 кадра/сек
Максимальная частота кадров : 29,970 кадров/сек
Цветовое пространство : YUV
Субдискретизация насыщенности : 4:2:0
Битовая глубина : 8 бит
Тип развёртки : Прогрессивная
Метод сжатия : С потерями
Бит/(Пиксели*Кадры) : 0.034
Размер потока : 347 Мбайт (88%)
Библиотека кодирования : Lavc57.48.101

Аудио
Идентификатор : 0
Формат : MPEG Audio
Версия формата : Version 1
Профиль формата : Layer 3
Режим : Joint stereo
Расширение режима : MS Stereo
Идентификатор кодека : 55
Идентификатор кодека/Подсказка : MP3
Продолжительность : 40 м. 52 с.
Вид битрейта : Постоянный
Битрейт : 128 Кбит/сек
Каналы : 2 канала
Частота : 48,0 КГц
Метод сжатия : С потерями
Размер потока : 37,4 Мбайт (10%)
Выравнивание : Соединение по промежуткам
Продолжительность промежутка : 8 мс. (1,00 видеокадр)

pb.wtf



Скачать Эда через торрент http://i101.fastpic.ru/big/2018/0317/a8/c4ff2f5ad3136da13a23bfbfe48616a8.jpg Скачать фильм Эда через торрент бесплантно в хорошем качестве Описание: Она молодой успешный модельер и одинокая мать, которая находится на перепутье. Вскоре ей предстоит принять решение, которое, ... 10 10 2
Торрент: Зарегистрирован [2018-03-17 13:23] · скачан: 6 раз
Статус: √ проверено
Размер: 3.03 GB
Как cкачать? Как скачать Эда через торрент | qTorrent

% Раздел Тема Автор DL S | L
Зарубежные сериалы [ 7.22 GB ] Эда / Edha / Сезон: 1 / Серии: 1-8 из 8 [2018 WEBRip 720p] MVO [ColdFilm] bober100 Скачать
1 | 0

28-11-2019 20:33  

Отключить всю рекламу на сайте

    Дорогой пользователь! Огромная просьба, поблагодарите релизера, оцените раздачу и оставьте свои комментарий, если Вы скачали Эда через торрент бесплатно! Внесите свою лепту в развитие PiratBit!
    Комментировать посты могут только пользователи прошедшие не сложную регистрацию
    Показать сообщения:    

    Эда через торрент
    Скачать бесплатно Эда
    Эда скачать торрент
    Эда смотреть онлайн
    Cкачать фильм Эда бесплатно
    Эда скачать торрент в хорошем качестве
    Эда смотреть онлайн бесплатно в хорошем качестве


    Вы не можете начинать темы
    Вы не можете отвечать на сообщения
    Вы не можете редактировать свои сообщения
    Вы не можете удалять свои сообщения
    Вы не можете голосовать в опросах
    Вы не можете прикреплять файлы к сообщениям
    Вы можете скачивать файлы