Ссылка на приватное зеркало нашего сайта всего за 1$. Внимание количество ограничено!!!

2 сезон

iTunes

1 сезон

1

iTunes

iTunes

iTunes

1 сезон

RePack

30

ИГРА 18+

pack

ВАЖНО

!!Акция!!

Alien_RageХит недели

RePack

MK11
pack

Забери бонус

RePack

jed

!!Акция!!

Alien_Rage

RePack

fifa19

RePack

Assassins Creed: Odyssey

RePack

NEED FOR SPEED™ PAYBACK

4 сезон

9 сезон

Бесстыжие 9 сезон

Все сериалы

все сериалы на PB.wtf

RePack

FAR CRY 5
  

Арена для убийства / Серии 1-4 из 4 (Дмитрий Аверин (II)) [2018, Детектив, криминал, мелодрама, SATRip] pb.wtf

Арена для убийства через торрент pb.wtf

Размер: 2.47 GB | Добавлен: 2 года 7 мес. назад | Торрент скачан:110 раз
Скачать  

17-03-2018 14:09 Арена для убийства Скачать торрент  

Арена для убийстваГод выпуска: 2018
Страна: Россия
Жанр: Детектив, криминал, мелодрама
Продолжительность: 4 x ~ 00:45:00
Субтитры: отсутствуют

Режиссер: Дмитрий Аверин (II)



В ролях:

Алиса Лозовская, Татьяна Чердынцева, Евгений Сидихин, Игорь Лепихин, Артём Карасев, Ян Цапник, Данила Воропаев, Ольга Гордийчук, Игорь Ботвин, Юрий Орлов (II), Роман Жилкин, Леандра Кудряшова, Анастасия Квитко, Юлия Ваганова, Дарья Пельц, Макар Кусакин

Описание:

На бывшую детдомовку, а ныне юную воздушную гимнастку Полину сваливается неожиданное богатство – таинственный поклонник ее таланта оставляет ей в наследство один из своих загородных домов. Подарок не приносит счастья – Полина теряет лучшую подругу, иллюзионистку Аглаю: жених Аглаи, красавец-силач Герман, как и многие прочие, начинает ухлестывать за новоиспеченной «принцессой цирка». Со зла Полина дает согласие выйти за Германа замуж. Но накануне торжества его находят убитым, а Аглаю арестовывают по подозрению в убийстве...

Качество: SATRip
Формат: AVI

Видео: XviD, ~ 1800 Кбит/с, 720x400
Аудио#1: MP3, 2 ch, 128 Кбит/с
скриншот   скриншот   скриншот  

Общее
Полное имя : D:\Arena.dlja.ubijstva.SATRip.[www.riperam.org]\Arena.dlja.ubijstva.01.SATRip.[www.riperam.org].avi
Формат : AVI
Формат/Информация : Audio Video Interleave
Размер файла : 640 Мбайт
Продолжительность : 46 м. 9 с.
Общий поток : 1938 Кбит/сек
Программа кодирования : VirtualDubMod 1.5.10.3 | www.virtualdub-fr.org || (build 2550/release)
Библиотека кодирования : VirtualDubMod build 2550/release

Видео
Идентификатор : 0
Формат : MPEG-4 Visual
Профиль формата : Advanced Simple@L5
Параметр BVOP формата : 2
Параметр QPel формата : Нет
Параметр GMC формата : Без точки перехода
Параметр матрицы формата : Default (H.263)
Идентификатор кодека : XVID
Идентификатор кодека/Подсказка : XviD
Продолжительность : 46 м. 9 с.
Битрейт : 1800 Кбит/сек
Ширина : 720 пикселей
Высота : 400 пикселей
Соотношение сторон : 16:9
Частота кадров : 25,000 кадров/сек
Цветовое пространство : YUV
Субдискретизация насыщенности : 4:2:0
Битовая глубина : 8 бит
Тип развёртки : Прогрессивная
Метод сжатия : С потерями
Бит/(Пиксели*Кадры) : 0.250
Размер потока : 594 Мбайт (93%)
Библиотека кодирования : XviD 1.2.1 (UTC 2008-12-04)

Аудио
Идентификатор : 1
Формат : MPEG Audio
Версия формата : Version 1
Профиль формата : Layer 3
Режим : Joint stereo
Расширение режима : MS Stereo
Идентификатор кодека : 55
Идентификатор кодека/Подсказка : MP3
Продолжительность : 46 м. 9 с.
Вид битрейта : Постоянный
Битрейт : 128 Кбит/сек
Каналы : 2 канала
Частота : 48,0 КГц
Метод сжатия : С потерями
Размер потока : 42,3 Мбайт (7%)
Выравнивание : Соединение по промежуткам
Продолжительность промежутка : 40 мс. (1,00 видеокадр)
Время предзагрузки промежутка : 504 мс.
Библиотека кодирования : LAME3.99r
Настройки программы : -m j -V 4 -q 9 -lowpass 17 -b 128
pb.wtf



Скачать Арена для убийства через торрент http://pic1.kartinco.top/images/11/wkok2.jpg Скачать фильм Арена для убийства через торрент бесплантно в хорошем качестве Описание: На бывшую детдомовку, а ныне юную воздушную гимнастку Полину сваливается неожиданное богатство – таинственный поклонник ее ... 9.2 10 6
Торрент: Зарегистрирован [2018-03-17 14:09] · скачан: 110 раз
Статус: √ проверено
Размер: 2.47 GB
Как cкачать? Как скачать Арена для убийства через торрент | qTorrent

% Раздел Тема Автор DL S | L
Наши сериалы [ 9.1 GB ] Арена для убийства / Серии 1-4 из 4 [2018 HDTV 1080i] bober100 Скачать
1 | 0
Наши сериалы [ 2.35 GB ] Арена для убийства / Серии 1-4 из 4 ) [2018 WEB-DLRip] bober100 Скачать
1 | 0
Наши сериалы [ 2.17 GB ] Арена для убийства / Серии: 1-4 из 4 [2017 SATRip-AVC] aleksan55 Скачать
1 | 0

28-11-2019 20:33  

Отключить всю рекламу на сайте

    Дорогой пользователь! Огромная просьба, поблагодарите релизера, оцените раздачу и оставьте свои комментарий, если Вы скачали Арена для убийства через торрент бесплатно! Внесите свою лепту в развитие PiratBit!
    Комментировать посты могут только пользователи прошедшие не сложную регистрацию
    Показать сообщения:    

    Арена для убийства через торрент
    Скачать бесплатно Арена для убийства
    Арена для убийства скачать торрент
    Арена для убийства смотреть онлайн
    Cкачать фильм Арена для убийства бесплатно
    Арена для убийства скачать торрент в хорошем качестве
    Арена для убийства смотреть онлайн бесплатно в хорошем качестве


    Вы не можете начинать темы
    Вы не можете отвечать на сообщения
    Вы не можете редактировать свои сообщения
    Вы не можете удалять свои сообщения
    Вы не можете голосовать в опросах
    Вы не можете прикреплять файлы к сообщениям
    Вы можете скачивать файлы