Ссылка на приватное зеркало всего за 1$. Внимание количество ограничено!!!

iTunes

iTunes

iTunes

1

iTunes

iTunes

iTunes

WEBRip

iTunes

30
pack

$ от Little Big

ВАЖНО

!!Акция!!

Alien_RageХит недели

RePack

Resident Evil 21

ИГРА 18+

pack

RePack

jed

!!Акция!!

Alien_Rage

RePack

fifa19

RePack

Assassins Creed: Odyssey

RePack

NEED FOR SPEED™ PAYBACK

4 сезон

9 сезон

Бесстыжие 9 сезон

Все сериалы

все сериалы на PB.wtf

RePack

FAR CRY 5
  

Ритуал / The Ritual (Дэвид Брукнер) [2017, ужасы, WEB-DL 1080p] MVO [Jaskier] pb.wtf

Ритуал через торрент pb.wtf

Размер: 3.55 GB | Добавлен: 2 года 4 мес. назад | Торрент скачан:229 раз
Скачать  

17-03-2018 16:56 Ритуал Скачать торрент  

Ритуал / The RitualГод выпуска: 2017
Страна: Великобритания
Жанр: ужасы
Продолжительность: 01:34:06
Перевод: Профессиональный многоголосый | Jaskier
Субтитры: отсутствуют

Режиссер: Дэвид Брукнер

rating

В ролях:

Рейф Сполл, Роб Джеймс-Колльер, Сэм Тротон, Аршер Али, Пол Рейд, Керри МакЛин, Мария Эрвольтер

Описание:

Четверо бывших одноклассников отправляются в поход по горам и лесам, чтобы почтить память погибшего друга. Сначала они придерживаются общепринятого маршрута, но затем решают немного прогуляться в сторону от натоптанной тропы и находят в лесу странный дом.

Качество: WEB-DL 1080p
Формат: MKV

Видео: MPEG-4 AVC, 4524 Кбит/с, 1920x958
Аудио#1: Русский (AC3, 6 ch, 384 Кбит/с)
Аудио#2: английский (AC3, 6 ch, 384 Кбит/с)
скриншот  скриншот  скриншот  

Общее
Уникальный идентификатор : 216387180131929852393990099163991697925 (0xA2CAA7ACC0E8133CAE65C2198026EA05)
Полное имя : D:\The.Ritual.2017.1080p.WEB-DL.DD5.1.H264-JASKiER.mkv
Формат : Matroska
Версия формата : Version 2
Размер файла : 3,55 Гбайт
Продолжительность : 1 ч. 34 м.
Общий поток : 5399 Кбит/сек
Дата кодирования : UTC 2018-03-17 15:16:48
Программа кодирования : mkvmerge v5.8.0 ('No Sleep / Pillow') built on Sep 2 2012 15:37:04
Библиотека кодирования : libebml v1.2.3 + libmatroska v1.3.0

Видео
Идентификатор : 1
Формат : AVC
Формат/Информация : Advanced Video Codec
Профиль формата : High@L4
Параметр CABAC формата : Да
Параметр RefFrames формата : 4 кадра
Идентификатор кодека : V_MPEG4/ISO/AVC
Продолжительность : 1 ч. 34 м.
Битрейт : 4524 Кбит/сек
Ширина : 1920 пикселей
Высота : 958 пикселей
Соотношение сторон : 2,004
Режим частоты кадров : Постоянный
Частота кадров : 23,976 (24000/1001) кадра/сек
Цветовое пространство : YUV
Субдискретизация насыщенности : 4:2:0
Битовая глубина : 8 бит
Тип развёртки : Прогрессивная
Бит/(Пиксели*Кадры) : 0.103
Размер потока : 2,97 Гбайт (84%)
Язык : English
Default : Да
Forced : Нет
Цветовой диапазон : Limited
Основные цвета : BT.709
Характеристики трансфера : BT.709
Коэффициенты матрицы : BT.709

Аудио #1
Идентификатор : 2
Формат : AC-3
Формат/Информация : Audio Coding 3
Расширение режима : CM (complete main)
Параметр Endianness формата : Big
Идентификатор кодека : A_AC3
Продолжительность : 1 ч. 34 м.
Вид битрейта : Постоянный
Битрейт : 384 Кбит/сек
Каналы : 6 каналов
Расположение каналов : Front: L C R, Side: L R, LFE
Частота : 48,0 КГц
Частота кадров : 31,250 кадров/сек (1536 spf)
Метод сжатия : С потерями
Задержка видео : -42 мс.
Размер потока : 258 Мбайт (7%)
Default : Нет
Forced : Нет

Аудио #2
Идентификатор : 3
Формат : AC-3
Формат/Информация : Audio Coding 3
Расширение режима : CM (complete main)
Параметр Endianness формата : Big
Идентификатор кодека : A_AC3
Продолжительность : 1 ч. 34 м.
Вид битрейта : Постоянный
Битрейт : 384 Кбит/сек
Каналы : 6 каналов
Расположение каналов : Front: L C R, Side: L R, LFE
Частота : 48,0 КГц
Частота кадров : 31,250 кадров/сек (1536 spf)
Метод сжатия : С потерями
Задержка видео : -42 мс.
Размер потока : 258 Мбайт (7%)
Язык : English
Default : Нет
Forced : Нет

Меню
00:00:00.000 : en:Chapter 1
00:10:06.731 : en:Chapter 2
00:17:04.815 : en:Chapter 3
00:26:09.734 : en:Chapter 4
00:36:45.411 : en:Chapter 5
00:44:52.189 : en:Chapter 6
00:55:33.079 : en:Chapter 7
01:03:48.491 : en:Chapter 8
01:12:47.363 : en:Chapter 9
01:19:14.875 : en:Chapter 10
01:30:11.656 : en:Chapter 11

pb.wtf
Kbober100 писал(а):

Реклама: Присутствует голосовая.



Скачать Ритуал через торрент http://img12.lostpic.net/2018/02/19/3c5bef14c029d3a1987abbbe0d2bd810.jpg Скачать фильм Ритуал через торрент бесплантно в хорошем качестве Описание: Четверо бывших одноклассников отправляются в поход по горам и лесам, чтобы почтить память погибшего друга. Сначала они ... 7.9 10 9
Торрент: Зарегистрирован [2018-03-17 16:56] · скачан: 229 раз
Статус: T временная
Размер: 3.55 GB
Как cкачать? Как скачать Ритуал через торрент | qTorrent

% Раздел Тема Автор DL S | L
T Фильмы (WEB-DL 720p, 1080p) [ 3.6 GB ] Ритуал / The Ritual [2017 WEBRip 1080p ] MVO [HDrezka Studio] WorldSM Скачать
2 | 0
T Фильмы 2017 [DVDrip, WEB-DLRip, HDrip] (DUB, MVO) [ 1.93 GB ] Ритуал / The Ritual [2017 WEB-DLRip-AVC] MVO [HDRezka Studio] bober100 Скачать
1 | 0
T Фильмы (мультфильмы) cо спонсором показа (Новинки AVI/MKV) [ 1.01 GB ] Ритуал / The Ritual [2017 WEB-DLRip] MVO [Jaskier] bober100 Скачать
1 | 0
T Фильмы (мультфильмы) cо спонсором показа (Новинки AVI/MKV) [ 1.37 GB ] Ритуал / The Ritual [2017 WEB-DLRip] MVO [BaibaKo] bober100 Скачать
1 | 0
T Фильмы 2017 (Звук TS, Cam, VO, DVO) [ 1.46 GB ] Ритуал / The Ritual [2017 WEB-DLRip-AVC] DVO sokol_ok Скачать
3 | 0
T Фильмы 2017 (Звук TS, Cam, VO, DVO) [ 2.18 GB ] Ритуал / The Ritual [2017 WEB-DLRip-AVC] DVO sokol_ok Скачать
1 | 0
T Фильмы 2017 (Звук TS, Cam, VO, DVO) [ 746 MB ] Ритуал / The Ritual [2017 WEB-DLRip-AVC] DVO sokol_ok Скачать
2 | 0

28-11-2019 20:33  

Отключить всю рекламу на сайте

    Дорогой пользователь! Огромная просьба, поблагодарите релизера, оцените раздачу и оставьте свои комментарий, если Вы скачали Ритуал через торрент бесплатно! Внесите свою лепту в развитие PiratBit!
    Комментировать посты могут только пользователи прошедшие не сложную регистрацию
    Показать сообщения:    

    Ритуал через торрент
    Скачать бесплатно Ритуал
    Ритуал скачать торрент
    Ритуал смотреть онлайн
    Cкачать фильм Ритуал бесплатно
    Ритуал скачать торрент в хорошем качестве
    Ритуал смотреть онлайн бесплатно в хорошем качестве


    Вы не можете начинать темы
    Вы не можете отвечать на сообщения
    Вы не можете редактировать свои сообщения
    Вы не можете удалять свои сообщения
    Вы не можете голосовать в опросах
    Вы не можете прикреплять файлы к сообщениям
    Вы можете скачивать файлы