Ссылка на приватное зеркало всего за 1$. Внимание количество ограничено!!!

OK

1+1

iTunes

мы

OK

1

WEB-DLRip

Джокер

Пифагор

Ведьмак / The Witcher сериал

iTunes

ПШазам

ОК

Оно 2

iTunes

30
pack

Вам бонус

ВАЖНО

!!Акция!!

Alien_RageХит недели

RePack

Resident Evil 21

ИГРА 18+

pack

RePack

jed

RePack

fifa19

RePack

Assassins Creed: Odyssey

RePack

NEED FOR SPEED™ PAYBACK

4 сезон

9 сезон

Бесстыжие 9 сезон

Все сериалы

все сериалы на PB.wtf

RePack

FAR CRY 5
  

Коттедж 28 / Cabin 28 (Эндрю Джонс) [2017, ужасы, BDRip 720p] MVO ["Синема УС"] pb.wtf

Коттедж 28 через торрент pb.wtf

Размер: 3.37 GB | Добавлен: 1 год 10 мес. назад | Торрент скачан:52 раза
Скачать  

17-03-2018 17:11 Коттедж 28 Скачать торрент  

Коттедж 28 / Cabin 28Год выпуска: 2017
Страна: Великобритания
Жанр: ужасы
Продолжительность: 01:20:32
Перевод: Любительский (многоголосый) | ["Синема УС"]
Субтитры: отсутствуют

Режиссер: Эндрю Джонс

rating

В ролях:

Терри Двайер, Ли Бэйн, Бренди Грин, Гарет Лоуренс, Дерек Нельсон, Джейсон Хоумвуд, Харриет Рис, Линни Буши, Александр Брэдвелл, Шон Рис-Джеймс

Описание:

Фильм основан на реальных событиях и повествует об одном из самых таинственных нераскрытых преступлений Америки. Зритель узнает, как мать-одиночку и её детей терроризировала группа маньяков-убийц.

Качество: BDRip 720p
Формат: MKV
Видео кодек: H.264
Аудио кодек: AC3

Видео: 5543 Kb/s, 1280x536
Аудио#1: Русский, (AC3, 2 ch, 448 Кбит/с)
скриншот  скриншот  скриншот  

Общее
Уникальный идентификатор : 223734752964620319266691583835924392434 (0xA851BEFC0C92F5D3821F0AA58BF4E9F2)
Полное имя : D:\Cabin.28.2017.P.BDRip.72Op_KOSHARA.mkv
Формат : Matroska
Версия формата : Version 2
Размер файла : 3,37 Гбайт
Продолжительность : 1 ч. 20 м.
Режим общего битрейта : Переменный
Общий поток : 5993 Кбит/сек
Дата кодирования : UTC 2018-03-12 19:39:25
Программа кодирования : mkvmerge v8.3.0 ('Over the Horizon') 64bit
Библиотека кодирования : libebml v1.3.1 + libmatroska v1.4.2

Видео
Идентификатор : 1
Формат : AVC
Формат/Информация : Advanced Video Codec
Профиль формата : High@L4.1
Параметр CABAC формата : Да
Параметр RefFrames формата : 4 кадра
Идентификатор кодека : V_MPEG4/ISO/AVC
Продолжительность : 1 ч. 20 м.
Вид битрейта : Переменный
Битрейт : 5543 Кбит/сек
Максимальный битрейт : 6600 Кбит/сек
Ширина : 1280 пикселей
Высота : 536 пикселей
Соотношение сторон : 2,40:1
Режим частоты кадров : Постоянный
Частота кадров : 25,000 кадров/сек
Стандарт вещания : Component
Цветовое пространство : YUV
Субдискретизация насыщенности : 4:2:0
Битовая глубина : 8 бит
Тип развёртки : Прогрессивная
Бит/(Пиксели*Кадры) : 0.323
Размер потока : 3,12 Гбайт (92%)
Default : Да
Forced : Нет
Цветовой диапазон : Limited
Основные цвета : BT.709
Характеристики трансфера : BT.709
Коэффициенты матрицы : BT.709

Аудио
Идентификатор : 2
Формат : AC-3
Формат/Информация : Audio Coding 3
Расширение режима : CM (complete main)
Параметр Endianness формата : Big
Идентификатор кодека : A_AC3
Продолжительность : 1 ч. 20 м.
Вид битрейта : Постоянный
Битрейт : 448 Кбит/сек
Каналы : 2 канала
Расположение каналов : Front: L R
Частота : 48,0 КГц
Частота кадров : 31,250 кадров/сек (1536 spf)
Метод сжатия : С потерями
Размер потока : 258 Мбайт (7%)
Default : Да
Forced : Нет

pb.wtf



Скачать Коттедж 28 через торрент http://img12.lostpic.net/2018/03/17/32c537b9aa184176d91250b26dab2fe4.jpg Скачать фильм Коттедж 28 через торрент бесплантно в хорошем качестве Описание: Фильм основан на реальных событиях и повествует об одном из самых таинственных нераскрытых преступлений Америки. Зритель узнает, ... 6.1 10 7
Торрент: Зарегистрирован [2018-03-17 17:11] · скачан: 52 раз
Статус: # сомнительно
Размер: 3.37 GB
Как cкачать? Как скачать Коттедж 28 через торрент | qTorrent

% Раздел Тема Автор DL S | L
T Фильмы (мультфильмы) cо спонсором показа (Новинки AVI/MKV) [ 1.34 GB ] Коттедж 28 / Cabin 28 [2017 HDRip] MVO ["Синема УС"] bober100 Скачать
1 | 0

28-11-2019 20:33  

Отключить всю рекламу на сайте

17-03-2018 17:58 Коттедж 28 Скачать торрент  

не советую к просмотру, недопятница 13, скучный и не страшный.pb.wtf



17-03-2018 19:13 Коттедж 28 Скачать торрент  

Arron_H1De писал(а):

не советую к просмотру, недопятница 13, скучный и не страшный.

спасибоpb.wtf



    Дорогой пользователь! Огромная просьба, поблагодарите релизера, оцените раздачу и оставьте свои комментарий, если Вы скачали Коттедж 28 через торрент бесплатно! Внесите свою лепту в развитие PiratBit!
    Комментировать посты могут только пользователи прошедшие не сложную регистрацию
    Показать сообщения:    

    Коттедж 28 через торрент
    Скачать бесплатно Коттедж 28
    Коттедж 28 скачать торрент
    Коттедж 28 смотреть онлайн
    Cкачать фильм Коттедж 28 бесплатно
    Коттедж 28 скачать торрент в хорошем качестве
    Коттедж 28 смотреть онлайн бесплатно в хорошем качестве


    Вы не можете начинать темы
    Вы не можете отвечать на сообщения
    Вы не можете редактировать свои сообщения
    Вы не можете удалять свои сообщения
    Вы не можете голосовать в опросах
    Вы не можете прикреплять файлы к сообщениям
    Вы можете скачивать файлы