Ссылка на приватное зеркало нашего сайта всего за 1$. Внимание количество ограничено!!!

2 сезон

iTunes

iTunes

1

iTunes

iTunes

iTunes

WEBRip

iTunes

30
pack

Вам бонус

ВАЖНО

!!Акция!!

Alien_RageХит недели

RePack

Horizon Zero Dawn

ИГРА 18+

pack

RePack

jed

!!Акция!!

Alien_Rage

RePack

fifa19

RePack

Assassins Creed: Odyssey

RePack

NEED FOR SPEED™ PAYBACK

4 сезон

9 сезон

Бесстыжие 9 сезон

Все сериалы

все сериалы на PB.wtf

RePack

FAR CRY 5
  

Лабиринт / Maze (Стефен Бурк) [2017, триллер, драма, криминал, детектив, приключения, история, BDRip 720p] MVO ["Синема УС"] pb.wtf

Лабиринт через торрент pb.wtf

Размер: 4.2 GB | Добавлен: 2 года 6 мес. назад | Торрент скачан:66 раз
Скачать  

17-03-2018 17:29 Лабиринт Скачать торрент  

Лабиринт / MazeГод выпуска: 2017
Страна: Великобритания, Германия, Швеция, Ирландия
Жанр: триллер, драма, криминал, детектив, приключения, история
Продолжительность: 01:34:41
Перевод: Любительский (многоголосый) | ["Синема УС"]
Субтитры: отсутствуют

Режиссер: Стефен Бурк

rating

В ролях:

Том Вон-Лолор, Бэрри Уорд, Мартин МакКанн, Айлин Уолш, Аарон Монахэн, Ниам МакГрэйди, Элва Трилль, Тим Крид, Силлиан О Салливан

Описание:

Фильм рассказывает о знаменитом побеге из тюрьмы её величества Мэйз. В 1983 году из тюрьмы максимальной безопасности сбежали 38 заключенных из Временной Ирландской республиканской армии. Побег стал крупнейшим по количеству сбежавших в британской истории со времен Второй Мировой войны.

Качество: BDRip 720p
Формат: MKV
Видео кодек: H.264
Аудио кодек: AC3

Видео: 5905 Кбит/с, 1280x536
Аудио#1: AC3, 2 ch, 448 Кбит/с
скриншот  скриншот  скриншот  

Общее
Уникальный идентификатор : 218231631619808368488675975818899278678 (0xA42DE2277AB7C4F6909986A6FEDECB56)
Полное имя : D:\Maze.2017.P.BDRip.72Op_KOSHARA.mkv
Формат : Matroska
Версия формата : Version 2
Размер файла : 4,20 Гбайт
Продолжительность : 1 ч. 34 м.
Режим общего битрейта : Переменный
Общий поток : 6355 Кбит/сек
Дата кодирования : UTC 2018-03-12 18:27:47
Программа кодирования : mkvmerge v8.3.0 ('Over the Horizon') 64bit
Библиотека кодирования : libebml v1.3.1 + libmatroska v1.4.2

Видео
Идентификатор : 1
Формат : AVC
Формат/Информация : Advanced Video Codec
Профиль формата : High@L4.1
Параметр CABAC формата : Да
Параметр RefFrames формата : 4 кадра
Идентификатор кодека : V_MPEG4/ISO/AVC
Продолжительность : 1 ч. 34 м.
Вид битрейта : Переменный
Битрейт : 5905 Кбит/сек
Максимальный битрейт : 6600 Кбит/сек
Ширина : 1280 пикселей
Высота : 536 пикселей
Соотношение сторон : 2,40:1
Режим частоты кадров : Постоянный
Частота кадров : 23,976 (24000/1001) кадра/сек
Стандарт вещания : Component
Цветовое пространство : YUV
Субдискретизация насыщенности : 4:2:0
Битовая глубина : 8 бит
Тип развёртки : Прогрессивная
Бит/(Пиксели*Кадры) : 0.351
Размер потока : 3,82 Гбайт (91%)
Default : Да
Forced : Нет
Цветовой диапазон : Limited
Основные цвета : BT.709
Характеристики трансфера : BT.709
Коэффициенты матрицы : BT.709

Аудио
Идентификатор : 2
Формат : AC-3
Формат/Информация : Audio Coding 3
Расширение режима : CM (complete main)
Параметр Endianness формата : Big
Идентификатор кодека : A_AC3
Продолжительность : 1 ч. 34 м.
Вид битрейта : Постоянный
Битрейт : 448 Кбит/сек
Каналы : 2 канала
Расположение каналов : Front: L R
Частота : 48,0 КГц
Частота кадров : 31,250 кадров/сек (1536 spf)
Метод сжатия : С потерями
Размер потока : 303 Мбайт (7%)
Default : Да
Forced : Нет

pb.wtf



Скачать Лабиринт через торрент http://pic1.kartinco.top/images/11/yipxp.jpg Скачать фильм Лабиринт через торрент бесплантно в хорошем качестве Описание: Фильм рассказывает о знаменитом побеге из тюрьмы её величества Мэйз. В 1983 году из тюрьмы максимальной безопасности сбежали 38 ... 10 10 2
Торрент: Зарегистрирован [2018-03-17 17:29] · скачан: 66 раз
Статус: # сомнительно
Размер: 4.2 GB
Как cкачать? Как скачать Лабиринт через торрент | qTorrent

% Раздел Тема Автор DL S | L
3D Фильмы [ 14.06 GB ] Лабиринт в 3Д / The Maze 3D [1953 BDRip 1080p] OverUnder / Вертикальная стереопара serega768 Скачать
1 | 0
Фильмы 2014 [DVDrip, WEB-DLRip, HDrip] [ 2.17 GB ] Бегущий в лабиринте / The Maze Runner [2014 BDRip-AVC] [] + [SUB] killermax2013 Скачать
1 | 0
Фильмы [HD 720p, 1080p] (Хороший звук DUB, MVO) [ 4.84 GB ] Бегущий в лабиринте: Лекарство от смерти / Maze Runner: The Death Cure [2018 BDRip 1080p HEVC ()] Мичман37 Скачать
1 | 0
Фильмы [HD 720p, 1080p] (Хороший звук DUB, MVO) [ 5.27 GB ] Бегущий в лабиринте: Испытание огнём / Maze Runner: The Scorch Trials [2015 BDRip 1080p HEVC ()] Мичман37 Скачать
1 | 0
Фильмы [HD 720p, 1080p] (Хороший звук DUB, MVO) [ 5.3 GB ] Бегущий в лабиринте / The Maze Runner [2014 BDRip 1080p HEVC ()] Мичман37 Скачать
1 | 0
Фильмы 2018 [DVDrip, WEB-DLRip, HDrip] (DUB, MVO) [ 2.18 GB ] Бегущий в лабиринте: Лекарство от смерти / Maze Runner: The Death Cure [2018 BDRip] - [] Twi7ter Скачать
1 | 0
Фильмы (Blu-ray, BD-Remux, HDDVD) [ 44.23 GB ] Бегущий в лабиринте: Лекарство от смерти / Maze Runner: The Death Cure [2018 Blu-ray EUR 1080p] DUB [] bober100 Скачать
1 | 0

28-11-2019 20:33  

Отключить всю рекламу на сайте

17-03-2018 18:15 Лабиринт Скачать торрент  

на имдб - ни слова про "временную" ИРА
да и как-то сложно азывать "временной" армию с двухсотлетней историейpb.wtf



18-03-2018 12:32 Лабиринт Скачать торрент  

концовка срезанаpb.wtf



    Дорогой пользователь! Огромная просьба, поблагодарите релизера, оцените раздачу и оставьте свои комментарий, если Вы скачали Лабиринт через торрент бесплатно! Внесите свою лепту в развитие PiratBit!
    Комментировать посты могут только пользователи прошедшие не сложную регистрацию
    Показать сообщения:    

    Лабиринт через торрент
    Скачать бесплатно Лабиринт
    Лабиринт скачать торрент
    Лабиринт смотреть онлайн
    Cкачать фильм Лабиринт бесплатно
    Лабиринт скачать торрент в хорошем качестве
    Лабиринт смотреть онлайн бесплатно в хорошем качестве


    Вы не можете начинать темы
    Вы не можете отвечать на сообщения
    Вы не можете редактировать свои сообщения
    Вы не можете удалять свои сообщения
    Вы не можете голосовать в опросах
    Вы не можете прикреплять файлы к сообщениям
    Вы можете скачивать файлы