MEGA SALE -50% FORZA HORIZON 4 ULTIMATE+ВСЕ DLC+ОНЛАЙН всего за 599р. 299 руб. (супер цена). Внимание количество ограничено!!!

iTunes

1+1

iTunes

мы

iTunes

1

iTunes

Чернобыль

iTunes

Ральф против интернета

Лицензия

ПШазам

Лицензия

Игра престолов

Лицензия

30
pack

ВАЖНО

!!Акция!!

Alien_RageХит недели

RePack

Resident Evil 21

ИГРА 18+

pack

RePack

Metro:Exodus

!!Акция!!

Alien_Rage

RePack

fifa19

RePack

Assassins Creed: Odyssey

RePack

NEED FOR SPEED™ PAYBACK

3 сезон

9 сезон

Бесстыжие 9 сезон

Все сериалы

все сериалы на PB.wtf

RePack

FAR CRY 5
Ребята, катастрофически не хватает 7730р. для оплаты серверов за АВГУСТ (всвязи с блокировками трафик упал в 3 раза), 1-2р., выручайте.
  

Фильм любви и анархии, или Сегодня в десять утра на Виа деи Фьори в известном доме терпимо / Film d'amore e d'anarchia, ovvero «stamattina alle 10 in via dei Fiori nella nota casa di (Лина Вертмюллер) [1973 г, драма, мелодрама, комедия, BDR pb.wtf

Фильм любви и анархии, или Сегодня в десять утра на Виа деи Фьори в известном доме терпимо через торрент pb.wtf

Раздают: 1 [ 0 KB/s ]
Размер: 1.45 GB | Добавлен: 1 год 6 мес. назад | Торрент скачан:23 раза
Скачать  

17-03-2018 18:04 Фильм любви и анархии, или Сегодня в десять утра на Виа деи Фьори в известном доме терпимо Скачать торрент  

Фильм любви и анархии или Сегодня в десять утра на Виа деи Фьори в известном доме терпимо / Film d'amore e d'anarchia ovvero «stamattina alle 10 in via dei Fiori nella nota casa di
Год выпуска: 1973
Страна: Италия, Франция
Жанр: драма, мелодрама, комедия
Продолжительность: 02:05:49
Перевод: Профессиональный одноголосый (TV Петербург)

Режиссер: Лина Вертмюллер

rating

В ролях: Джанкарло Джаннини, Марианджела Мелато, Эрос Паньи, Пина Чеи, Лина Полито, Елена Фьоре, Джулиана Каландра, Иза Беллини, Иза Даниэли, Энрика Бонаккорти, Анна Бонаюто, Анита Бранцанти, Мария Шакка, Анна Мелато, Джеа Линки, Анна Стивала, Жозиан Танцилли, Валерия Пьяджо

Описание: В публичный дом в Риме из Парижа приезжает анархист с детскими, испуганными глазами, всклокоченной головой и с множеством веснушек. Он приезжает к связной Саломее, которая работает там по специальности. Она должна помочь ему с убийством Бенито Муссолини и выдает его за своего кузена. Робкий парень в первый раз оказался в публичном доме…

Качество: BDRip (FILM_D'AMORE_E_D'ANARCHIA_1973_BD-REMUX_HDCLUB)
Формат: AVI
Видео: XviD, 1449 Кбит/с, 720x384, 24 Кадр/с
Аудио: AC3, 1 ch, 192 Кбит/с
Релиз от: Koenig
скриншот   скриншот   скриншот   скриншот   скриншот   скриншот  

Общее
Полное имя : Film.damore.e.danarchia.1973.BDRip.avi
Формат : AVI
Формат/Информация : Audio Video Interleave
Размер файла : 1,45 Гбайт
Продолжительность : 2 ч. 5 м.
Общий поток : 1650 Кбит/сек
Программа кодирования : VirtualDubMod 1.5.10.2 (build 2540/release)
Библиотека кодирования : VirtualDubMod build 2540/release

Видео
Идентификатор : 0
Формат : MPEG-4 Visual
Профиль формата : Advanced Simple@L5
Параметр BVOP формата : 1
Параметр QPel формата : Нет
Параметр GMC формата : Без точки перехода
Параметр матрицы формата : Выборочная
Идентификатор кодека : XVID
Идентификатор кодека/Подсказка : XviD
Продолжительность : 2 ч. 5 м.
Битрейт : 1449 Кбит/сек
Ширина : 720 пикселей
Высота : 384 пикселя
Соотношение сторон : 1,85:1
Частота кадров : 24,000 кадра/сек
Цветовое пространство : YUV
Субдискретизация насыщенности : 4:2:0
Битовая глубина : 8 бит
Тип развёртки : Прогрессивная
Метод сжатия : С потерями
Бит/(Пиксели*Кадры) : 0.218
Размер потока : 1,27 Гбайт (88%)
Библиотека кодирования : XviD 65

Аудио
Идентификатор : 1
Формат : AC-3
Формат/Информация : Audio Coding 3
Параметр Endianness формата : Big
Идентификатор кодека : 2000
Продолжительность : 2 ч. 5 м.
Вид битрейта : Постоянный
Битрейт : 192 Кбит/сек
Каналы : 1 канал
Расположение каналов : Front: C
Частота : 48,0 КГц
Частота кадров : 31,250 кадров/сек (1536 spf)
Битовая глубина : 16 бит
Метод сжатия : С потерями
Размер потока : 173 Мбайт (12%)
Выравнивание : Разделение по промежуткам
Продолжительность промежутка : 42 мс. (1,00 видеокадр)
Время предзагрузки промежутка : 500 мс.
ServiceKind/String : Complete Main

pb.wtf



Скачать Фильм любви и анархии, или Сегодня в десять утра на Виа деи Фьори в известном доме терпимо через торрент http://img12.lostpic.net/2018/03/17/450cb63bbbe775006349d08d789c1de6.jpg Скачать фильм Фильм любви и анархии, или Сегодня в десять утра на Виа деи Фьори в известном доме терпимо через торрент бесплантно в хорошем качестве Описание: В публичный дом в Риме из Парижа приезжает анархист с детскими, испуганными глазами, всклокоченной головой и с множеством ... 9 10 3
Торрент: Зарегистрирован [2018-03-17 18:04] · скачан: 23 раз
Статус: √ проверено
Размер: 1.45 GB
Как cкачать? Как скачать Фильм любви и анархии, или Сегодня в десять утра на Виа деи Фьори в известном доме терпимо через торрент | qTorrent


>> Регистрируемся здесь <<






Отзывы и комментарии о схеме читаем и пишем здесь: ---> Отзывы и комментарии о схеме

Новые благодарочки в телеграм довольных пользователей:
скриншот   скриншот   скриншот   скриншот   скриншот

13-04-2018 11:45 Фильм любви и анархии, или Сегодня в десять утра на Виа деи Фьори в известном доме терпимо Скачать торрент  

Еще один отличный фильм Лины Вертмюллер. Недаром дама была помощником режиссера у Феллини. Она как никто умела использовать всю мощь таланта Джанкарло Джаннини и делать с его помощью очень трогательные, но при этом по- настоящему серьезные картины. Фильм для зрелых любителей хорошего кино. Качество рипа хорошее. РЕКЛАМЫ НЕТ. Спасибо за раздачу.pb.wtf



    Дорогой пользователь! Огромная просьба, поблагодарите релизера, оцените раздачу и оставьте свои комментарий, если Вы скачали Фильм любви и анархии, или Сегодня в десять утра на Виа деи Фьори в известном доме терпимо через торрент бесплатно! Внесите свою лепту в развитие PiratBit!
    Комментировать посты могут только пользователи прошедшие не сложную регистрацию
    Показать сообщения:    

    Фильм любви и анархии, или Сегодня в десять утра на Виа деи Фьори в известном доме терпимо через торрент
    Скачать бесплатно Фильм любви и анархии, или Сегодня в десять утра на Виа деи Фьори в известном доме терпимо
    Фильм любви и анархии, или Сегодня в десять утра на Виа деи Фьори в известном доме терпимо скачать торрент
    Фильм любви и анархии, или Сегодня в десять утра на Виа деи Фьори в известном доме терпимо смотреть онлайн
    Cкачать фильм Фильм любви и анархии, или Сегодня в десять утра на Виа деи Фьори в известном доме терпимо бесплатно
    Фильм любви и анархии, или Сегодня в десять утра на Виа деи Фьори в известном доме терпимо скачать торрент в хорошем качестве
    Фильм любви и анархии, или Сегодня в десять утра на Виа деи Фьори в известном доме терпимо смотреть онлайн бесплатно в хорошем качестве


    Вы не можете начинать темы
    Вы не можете отвечать на сообщения
    Вы не можете редактировать свои сообщения
    Вы не можете удалять свои сообщения
    Вы не можете голосовать в опросах
    Вы не можете прикреплять файлы к сообщениям
    Вы можете скачивать файлы