Ссылка на приватное зеркало всего за 1$. Внимание количество ограничено!!!

OK

1+1

iTunes

мы

OK

1

WEB-DLRip

Джокер

Пифагор

Ведьмак / The Witcher сериал

Лицензия

ПШазам

ОК

Оно 2

iTunes

30
pack

Вам бонус

ВАЖНО

!!Акция!!

Alien_RageХит недели

RePack

Resident Evil 21

ИГРА 18+

pack

RePack

jed

!!Акция!!

Alien_Rage

RePack

fifa19

RePack

Assassins Creed: Odyssey

RePack

NEED FOR SPEED™ PAYBACK

4 сезон

9 сезон

Бесстыжие 9 сезон

Все сериалы

все сериалы на PB.wtf

RePack

FAR CRY 5
  

Пустая чёрная клетка / Black Hollow Cage (Садрак Гонсалес-Переллон) [2017, фантастика, триллер, драма, WEB-DL 720p] MVO [КОЛОБОК] pb.wtf

Пустая чёрная клетка через торрент pb.wtf

Размер: 3.46 GB | Добавлен: 1 год 10 мес. назад | Торрент скачан:114 раз
Скачать  

17-03-2018 18:32 Пустая чёрная клетка Скачать торрент  

Пустая чёрная клетка / Black Hollow CageГод выпуска: 2017
Страна: Испания
Жанр: фантастика, триллер, драма
Продолжительность: 01:47:30
Перевод: Любительский (многоголосый) | КОЛОБОК
Субтитры: отсутствуют

Режиссер: Садрак Гонсалес-Переллон

rating

В ролях:

Джулиан Ли, Даниэль М. Якобс, Люси Тиллет, Марк Пучженер, Хайде Лизандер, Ловена МакДоннелл, Уилл Хадсон

Описание:

В чаще леса в бронированном доме живёт девушка-подросток с отцом и большой белой собакой. Однажды она находит среди деревьев загадочный куб, а отец находит в лесу избитую девушку и немого мальчика.

Качество: WEB-DL 720p
Формат: MKV
Видео кодек: H.264
Аудио кодек: AC3

Видео: 4410 kb/s, 1280x532
Аудио#1: Русский, (AC3, 2 ch, 192 Кбит/с)
скриншот  скриншот  скриншот  

Общее
Уникальный идентификатор : 187840418759301056149351422030475748791 (0x8D50BFAC790FE0DB9FB8644951F4E5B7)
Полное имя : D:\Black Hollow Cage.2018.Pk.WEB-DL.72Op_KOSHARA.mkv
Формат : Matroska
Версия формата : Version 2
Размер файла : 3,46 Гбайт
Продолжительность : 1 ч. 47 м.
Режим общего битрейта : Переменный
Общий поток : 4604 Кбит/сек
Дата кодирования : UTC 2018-03-12 18:24:25
Программа кодирования : mkvmerge v8.3.0 ('Over the Horizon') 64bit
Библиотека кодирования : libebml v1.3.1 + libmatroska v1.4.2

Видео
Идентификатор : 1
Формат : AVC
Формат/Информация : Advanced Video Codec
Профиль формата : High@L4.1
Параметр CABAC формата : Да
Параметр RefFrames формата : 4 кадра
Идентификатор кодека : V_MPEG4/ISO/AVC
Продолжительность : 1 ч. 47 м.
Вид битрейта : Переменный
Битрейт : 4410 Кбит/сек
Максимальный битрейт : 5000 Кбит/сек
Ширина : 1280 пикселей
Высота : 532 пикселя
Соотношение сторон : 2,40:1
Режим частоты кадров : Постоянный
Частота кадров : 23,976 (24000/1001) кадра/сек
Стандарт вещания : Component
Цветовое пространство : YUV
Субдискретизация насыщенности : 4:2:0
Битовая глубина : 8 бит
Тип развёртки : Прогрессивная
Бит/(Пиксели*Кадры) : 0.265
Размер потока : 3,24 Гбайт (94%)
Default : Да
Forced : Нет
Цветовой диапазон : Limited
Основные цвета : BT.709
Характеристики трансфера : BT.709
Коэффициенты матрицы : BT.709

Аудио
Идентификатор : 2
Формат : AC-3
Формат/Информация : Audio Coding 3
Расширение режима : CM (complete main)
Параметр Endianness формата : Big
Идентификатор кодека : A_AC3
Продолжительность : 1 ч. 47 м.
Вид битрейта : Постоянный
Битрейт : 192 Кбит/сек
Каналы : 2 канала
Расположение каналов : Front: L R
Частота : 48,0 КГц
Частота кадров : 31,250 кадров/сек (1536 spf)
Метод сжатия : С потерями
Размер потока : 148 Мбайт (4%)
Default : Да
Forced : Нет

pb.wtf



Скачать Пустая чёрная клетка через торрент http://img12.lostpic.net/2018/03/17/152335d03cba98ab2b6f2ccddb8c6032.jpg Скачать фильм Пустая чёрная клетка через торрент бесплантно в хорошем качестве Описание: В чаще леса в бронированном доме живёт девушка-подросток с отцом и большой белой собакой. Однажды она находит среди деревьев ... 8.2 10 5
Торрент: Зарегистрирован [2018-03-17 18:32] · скачан: 114 раз
Статус: T временная
Размер: 3.46 GB
Как cкачать? Как скачать Пустая чёрная клетка через торрент | qTorrent

% Раздел Тема Автор DL S | L
T Фильмы (мультфильмы) cо спонсором показа (Новинки AVI/MKV) [ 1.41 GB ] Пустая чёрная клетка / Black Hollow Cage [2017 WEB-DLRip] MVO [КОЛОБОК] bober100 Скачать
1 | 0

28-11-2019 20:33  

Отключить всю рекламу на сайте

18-03-2018 07:14 Пустая чёрная клетка Скачать торрент  

bober100, Спасибо! pb.wtf



    Дорогой пользователь! Огромная просьба, поблагодарите релизера, оцените раздачу и оставьте свои комментарий, если Вы скачали Пустая чёрная клетка через торрент бесплатно! Внесите свою лепту в развитие PiratBit!
    Комментировать посты могут только пользователи прошедшие не сложную регистрацию
    Показать сообщения:    

    Пустая чёрная клетка через торрент
    Скачать бесплатно Пустая чёрная клетка
    Пустая чёрная клетка скачать торрент
    Пустая чёрная клетка смотреть онлайн
    Cкачать фильм Пустая чёрная клетка бесплатно
    Пустая чёрная клетка скачать торрент в хорошем качестве
    Пустая чёрная клетка смотреть онлайн бесплатно в хорошем качестве


    Вы не можете начинать темы
    Вы не можете отвечать на сообщения
    Вы не можете редактировать свои сообщения
    Вы не можете удалять свои сообщения
    Вы не можете голосовать в опросах
    Вы не можете прикреплять файлы к сообщениям
    Вы можете скачивать файлы