Ссылка на приватное зеркало нашего сайта всего за 1$. Внимание количество ограничено!!!

2 сезон

iTunes

iTunes

1

iTunes

iTunes

iTunes

WEBRip

iTunes

30
pack

Вам бонус

ВАЖНО

!!Акция!!

Alien_RageХит недели

RePack

Horizon Zero Dawn

ИГРА 18+

pack

RePack

jed

!!Акция!!

Alien_Rage

RePack

fifa19

RePack

Assassins Creed: Odyssey

RePack

NEED FOR SPEED™ PAYBACK

4 сезон

9 сезон

Бесстыжие 9 сезон

Все сериалы

все сериалы на PB.wtf

RePack

FAR CRY 5
  

Психопаты / Psychopaths (Мики Китинг) [2017, ужасы, WEB-DL 720p] MVO [КОЛОБОК] pb.wtf

Психопаты через торрент pb.wtf

Размер: 2.76 GB | Добавлен: 2 года 6 мес. назад | Торрент скачан:10 раз
Скачать  

17-03-2018 19:12 Психопаты Скачать торрент  

Психопаты / PsychopathsГод выпуска: 2017
Страна: США
Жанр: ужасы
Продолжительность: 01:22:46
Перевод: Любительский (многоголосый) | КОЛОБОК
Субтитры: отсутствуют

Режиссер: Мики Китинг

rating

В ролях:

Эшли Белл, Джэми Бурк, Ларри Фессенден, Росс Френсис, Джереми Гарднер, Джеймс Хеберт, Марк Кассен, Мэтт Мерсер, Карсон Найсели, Миранда Пархэм

Описание:

История нескольких психопатов, продолжающих наследие убийцы, которого поставили в один ряд с величайшими маньяками Америки.

Качество: WEB-DL 720p
Формат: MKV
Видео кодек: H.264
Аудио кодек: AC3

Видео: 4380 Kбит/с, 1280x568
Аудио#1: Русский, (AC3, 2 ch, 384 Кбит/с)
скриншот  скриншот  скриншот  

Общее
Уникальный идентификатор : 242548174838188313082284234976625921671 (0xB679144C336F7684A8C1044E8A2F8E87)
Полное имя : D:\Psychopaths.2017.P.WEB-DL.72Op.mkv
Формат : Matroska
Версия формата : Version 2
Размер файла : 2,76 Гбайт
Продолжительность : 1 ч. 22 м.
Режим общего битрейта : Переменный
Общий поток : 4766 Кбит/сек
Дата кодирования : UTC 2018-03-10 14:44:11
Программа кодирования : mkvmerge v8.3.0 ('Over the Horizon') 64bit
Библиотека кодирования : libebml v1.3.1 + libmatroska v1.4.2

Видео
Идентификатор : 1
Формат : AVC
Формат/Информация : Advanced Video Codec
Профиль формата : High@L4.1
Параметр CABAC формата : Да
Параметр RefFrames формата : 4 кадра
Идентификатор кодека : V_MPEG4/ISO/AVC
Продолжительность : 1 ч. 22 м.
Вид битрейта : Переменный
Битрейт : 4380 Кбит/сек
Максимальный битрейт : 5000 Кбит/сек
Ширина : 1280 пикселей
Высота : 568 пикселей
Соотношение сторон : 2,25:1
Режим частоты кадров : Постоянный
Частота кадров : 23,976 (24000/1001) кадра/сек
Стандарт вещания : Component
Цветовое пространство : YUV
Субдискретизация насыщенности : 4:2:0
Битовая глубина : 8 бит
Тип развёртки : Прогрессивная
Бит/(Пиксели*Кадры) : 0.246
Размер потока : 2,48 Гбайт (90%)
Default : Да
Forced : Нет
Цветовой диапазон : Limited
Основные цвета : BT.709
Характеристики трансфера : BT.709
Коэффициенты матрицы : BT.709

Аудио
Идентификатор : 2
Формат : AC-3
Формат/Информация : Audio Coding 3
Расширение режима : CM (complete main)
Параметр Endianness формата : Big
Идентификатор кодека : A_AC3
Продолжительность : 1 ч. 22 м.
Вид битрейта : Постоянный
Битрейт : 384 Кбит/сек
Каналы : 2 канала
Расположение каналов : Front: L R
Частота : 48,0 КГц
Частота кадров : 31,250 кадров/сек (1536 spf)
Метод сжатия : С потерями
Размер потока : 227 Мбайт (8%)
Default : Да
Forced : Нет

pb.wtf



Скачать Психопаты через торрент http://img12.lostpic.net/2018/03/17/212e27437792871d7bce2faaf0bd3aa5.jpg Скачать фильм Психопаты через торрент бесплантно в хорошем качестве Описание: История нескольких психопатов, продолжающих наследие убийцы, которого поставили в один ряд с величайшими маньяками ... 10 10 2
Торрент: Зарегистрирован [2018-03-17 19:12] · скачан: 10 раз
Статус: T временная
Размер: 2.76 GB
Как cкачать? Как скачать Психопаты через торрент | qTorrent

% Раздел Тема Автор DL S | L
T Фильмы (мультфильмы) cо спонсором показа (Новинки AVI/MKV) [ 3.22 GB ] Психопаты / Psychedelic Psychopaths [2019 WEB-DL 720p] MVO ["Синема УС"] bober100 Скачать
1 | 0
T Фильмы (мультфильмы) cо спонсором показа (Новинки AVI/MKV) [ 1.37 GB ] Психопаты / Psychedelic Psychopaths [2019 WEB-DLRip] MVO ["Синема УС"] bober100 Скачать
1 | 0
T Фильмы (мультфильмы) cо спонсором показа (Новинки AVI/MKV) [ 1.36 GB ] Психопаты / Psychopaths [2017 WEB-DLRip] MVO [КОЛОБОК] bober100 Скачать
1 | 0
Фильмы с авторской озвучкой [ 2.23 GB ] Семь психопатов / Seven Psychopaths [2012 HDRip-AVC AVO [Гоблин] 0xiDESK Скачать
1 | 0
Фильмы [HD 720p, 1080p] (Хороший звук DUB, MVO) [ 9.97 GB ] Семь психопатов / Seven Psychopaths [2012 BDRip 720p] Kavasar Скачать
2 | 0
Фильмы 2012 [ 2.06 GB ] Семь психопатов / Seven Psychopaths [2012 HDRip DUB лицензия] кэп Скачать
1 | 0
Фильмы (Blu-ray, BD-Remux, HDDVD) [ 33.49 GB ] Семь психопатов / Seven Psychopaths [2012 BDRemux ] DUB+AVO Ворон Скачать
1 | 0

28-11-2019 20:33  

Отключить всю рекламу на сайте

    Дорогой пользователь! Огромная просьба, поблагодарите релизера, оцените раздачу и оставьте свои комментарий, если Вы скачали Психопаты через торрент бесплатно! Внесите свою лепту в развитие PiratBit!
    Комментировать посты могут только пользователи прошедшие не сложную регистрацию
    Показать сообщения:    

    Психопаты через торрент
    Скачать бесплатно Психопаты
    Психопаты скачать торрент
    Психопаты смотреть онлайн
    Cкачать фильм Психопаты бесплатно
    Психопаты скачать торрент в хорошем качестве
    Психопаты смотреть онлайн бесплатно в хорошем качестве


    Вы не можете начинать темы
    Вы не можете отвечать на сообщения
    Вы не можете редактировать свои сообщения
    Вы не можете удалять свои сообщения
    Вы не можете голосовать в опросах
    Вы не можете прикреплять файлы к сообщениям
    Вы можете скачивать файлы